  0
SECTION
  2
HEADER
  9
$ACADVER
  1
AC1015
  9
$ACADMAINTVER
 70
    20
  9
$DWGCODEPAGE
  3
ANSI_932
  9
$INSBASE
 10
0.0
 20
0.0
 30
0.0
  9
$EXTMIN
 10
3319.025202169866
 20
288.0123851827266
 30
-0.0015258207003583
  9
$EXTMAX
 10
4027.003761372736
 20
645.4770575441211
 30
0.0000000349246037
  9
$LIMMIN
 10
0.0
 20
0.0
  9
$LIMMAX
 10
841.0
 20
594.0
  9
$ORTHOMODE
 70
     0
  9
$REGENMODE
 70
     1
  9
$FILLMODE
 70
     1
  9
$QTEXTMODE
 70
     0
  9
$MIRRTEXT
 70
     1
  9
$LTSCALE
 40
7.0
  9
$ATTMODE
 70
     1
  9
$TEXTSIZE
 40
0.2
  9
$TRACEWID
 40
0.05
  9
$TEXTSTYLE
  7
STANDARD
  9
$CLAYER
  8
OILES
  9
$CELTYPE
  6
BYLAYER
  9
$CECOLOR
 62
   256
  9
$CELTSCALE
 40
1.0
  9
$DISPSILH
 70
     0
  9
$DIMSCALE
 40
1.0
  9
$DIMASZ
 40
4.0
  9
$DIMEXO
 40
1.0
  9
$DIMDLI
 40
7.0
  9
$DIMRND
 40
0.0
  9
$DIMDLE
 40
0.0
  9
$DIMEXE
 40
1.0
  9
$DIMTP
 40
0.0
  9
$DIMTM
 40
0.0
  9
$DIMTXT
 40
6.0
  9
$DIMCEN
 40
2.5
  9
$DIMTSZ
 40
0.0
  9
$DIMTOL
 70
     0
  9
$DIMLIM
 70
     0
  9
$DIMTIH
 70
     0
  9
$DIMTOH
 70
     0
  9
$DIMSE1
 70
     0
  9
$DIMSE2
 70
     0
  9
$DIMTAD
 70
     1
  9
$DIMZIN
 70
     8
  9
$DIMBLK
  1
OPEN
  9
$DIMASO
 70
     1
  9
$DIMSHO
 70
     1
  9
$DIMPOST
  1

  9
$DIMAPOST
  1

  9
$DIMALT
 70
     0
  9
$DIMALTD
 70
     3
  9
$DIMALTF
 40
0.03937007874016
  9
$DIMLFAC
 40
1.0
  9
$DIMTOFL
 70
     1
  9
$DIMTVP
 40
0.0
  9
$DIMTIX
 70
     0
  9
$DIMSOXD
 70
     0
  9
$DIMSAH
 70
     0
  9
$DIMBLK1
  1

  9
$DIMBLK2
  1

  9
$DIMSTYLE
  2
A1  1-1
  9
$DIMCLRD
 70
     4
  9
$DIMCLRE
 70
     4
  9
$DIMCLRT
 70
   255
  9
$DIMTFAC
 40
1.0
  9
$DIMGAP
 40
2.0
  9
$DIMJUST
 70
     0
  9
$DIMSD1
 70
     0
  9
$DIMSD2
 70
     0
  9
$DIMTOLJ
 70
     0
  9
$DIMTZIN
 70
     8
  9
$DIMALTZ
 70
     0
  9
$DIMALTTZ
 70
     0
  9
$DIMUPT
 70
     0
  9
$DIMDEC
 70
     1
  9
$DIMTDEC
 70
     1
  9
$DIMALTU
 70
     2
  9
$DIMALTTD
 70
     3
  9
$DIMTXSTY
  7
OILES
  9
$DIMAUNIT
 70
     0
  9
$DIMADEC
 70
     0
  9
$DIMALTRND
 40
0.0
  9
$DIMAZIN
 70
     0
  9
$DIMDSEP
 70
    46
  9
$DIMATFIT
 70
     3
  9
$DIMFRAC
 70
     0
  9
$DIMLDRBLK
  1
OPEN
  9
$DIMLUNIT
 70
     2
  9
$DIMLWD
 70
    -1
  9
$DIMLWE
 70
    -1
  9
$DIMTMOVE
 70
     0
  9
$LUNITS
 70
     2
  9
$LUPREC
 70
     4
  9
$SKETCHINC
 40
0.1
  9
$FILLETRAD
 40
0.0
  9
$AUNITS
 70
     0
  9
$AUPREC
 70
     0
  9
$MENU
  1
ACAD
  9
$ELEVATION
 40
0.0
  9
$PELEVATION
 40
0.0
  9
$THICKNESS
 40
0.0
  9
$LIMCHECK
 70
     0
  9
$CHAMFERA
 40
0.0
  9
$CHAMFERB
 40
0.0
  9
$CHAMFERC
 40
0.0
  9
$CHAMFERD
 40
0.0
  9
$SKPOLY
 70
     0
  9
$TDCREATE
 40
2440588.749988426
  9
$TDUCREATE
 40
2311948.886448623
  9
$TDUPDATE
 40
2459271.907280093
  9
$TDUUPDATE
 40
2459271.532280093
  9
$TDINDWG
 40
0.0181863079
  9
$TDUSRTIMER
 40
0.0181857755
  9
$USRTIMER
 70
     1
  9
$ANGBASE
 50
0.0
  9
$ANGDIR
 70
     0
  9
$PDMODE
 70
     0
  9
$PDSIZE
 40
0.0
  9
$PLINEWID
 40
0.0
  9
$SPLFRAME
 70
     0
  9
$SPLINETYPE
 70
     6
  9
$SPLINESEGS
 70
     8
  9
$HANDSEED
  5
36C7
  9
$SURFTAB1
 70
     6
  9
$SURFTAB2
 70
     6
  9
$SURFTYPE
 70
     6
  9
$SURFU
 70
     6
  9
$SURFV
 70
     6
  9
$UCSBASE
  2

  9
$UCSNAME
  2

  9
$UCSORG
 10
0.0
 20
0.0
 30
0.0
  9
$UCSXDIR
 10
1.0
 20
0.0
 30
0.0
  9
$UCSYDIR
 10
0.0
 20
1.0
 30
0.0
  9
$UCSORTHOREF
  2

  9
$UCSORTHOVIEW
 70
     0
  9
$UCSORGTOP
 10
0.0
 20
0.0
 30
0.0
  9
$UCSORGBOTTOM
 10
0.0
 20
0.0
 30
0.0
  9
$UCSORGLEFT
 10
0.0
 20
0.0
 30
0.0
  9
$UCSORGRIGHT
 10
0.0
 20
0.0
 30
0.0
  9
$UCSORGFRONT
 10
0.0
 20
0.0
 30
0.0
  9
$UCSORGBACK
 10
0.0
 20
0.0
 30
0.0
  9
$PUCSBASE
  2

  9
$PUCSNAME
  2

  9
$PUCSORG
 10
0.0
 20
0.0
 30
0.0
  9
$PUCSXDIR
 10
1.0
 20
0.0
 30
0.0
  9
$PUCSYDIR
 10
0.0
 20
1.0
 30
0.0
  9
$PUCSORTHOREF
  2

  9
$PUCSORTHOVIEW
 70
     0
  9
$PUCSORGTOP
 10
0.0
 20
0.0
 30
0.0
  9
$PUCSORGBOTTOM
 10
0.0
 20
0.0
 30
0.0
  9
$PUCSORGLEFT
 10
0.0
 20
0.0
 30
0.0
  9
$PUCSORGRIGHT
 10
0.0
 20
0.0
 30
0.0
  9
$PUCSORGFRONT
 10
0.0
 20
0.0
 30
0.0
  9
$PUCSORGBACK
 10
0.0
 20
0.0
 30
0.0
  9
$USERI1
 70
     0
  9
$USERI2
 70
     0
  9
$USERI3
 70
     0
  9
$USERI4
 70
     0
  9
$USERI5
 70
     0
  9
$USERR1
 40
0.0
  9
$USERR2
 40
0.0
  9
$USERR3
 40
0.0
  9
$USERR4
 40
0.0
  9
$USERR5
 40
0.0
  9
$WORLDVIEW
 70
     1
  9
$SHADEDGE
 70
     3
  9
$SHADEDIF
 70
    70
  9
$TILEMODE
 70
     1
  9
$MAXACTVP
 70
    64
  9
$PINSBASE
 10
0.0
 20
0.0
 30
0.0
  9
$PLIMCHECK
 70
     0
  9
$PEXTMIN
 10
1.000000000000000E+20
 20
1.000000000000000E+20
 30
1.000000000000000E+20
  9
$PEXTMAX
 10
-1.000000000000000E+20
 20
-1.000000000000000E+20
 30
-1.000000000000000E+20
  9
$PLIMMIN
 10
0.0
 20
0.0
  9
$PLIMMAX
 10
12.0
 20
9.0
  9
$UNITMODE
 70
     0
  9
$VISRETAIN
 70
     1
  9
$PLINEGEN
 70
     0
  9
$PSLTSCALE
 70
     1
  9
$TREEDEPTH
 70
  3020
  9
$CMLSTYLE
  2
STANDARD
  9
$CMLJUST
 70
     0
  9
$CMLSCALE
 40
1.0
  9
$PROXYGRAPHICS
 70
     1
  9
$MEASUREMENT
 70
     0
  9
$CELWEIGHT
370
    -1
  9
$ENDCAPS
280
     0
  9
$JOINSTYLE
280
     0
  9
$LWDISPLAY
290
     1
  9
$INSUNITS
 70
     0
  9
$HYPERLINKBASE
  1

  9
$STYLESHEET
  1

  9
$XEDIT
290
     1
  9
$CEPSNTYPE
380
     0
  9
$PSTYLEMODE
290
     1
  9
$FINGERPRINTGUID
  2
{3221CFC7-5CC3-448A-BD9E-B11D26102711}
  9
$VERSIONGUID
  2
{321A1B57-147A-C64F-AEAE-207C322652B9}
  9
$EXTNAMES
290
     1
  9
$PSVPSCALE
 40
0.0
  9
$OLESTARTUP
290
     0
  0
ENDSEC
  0
SECTION
  2
CLASSES
  0
CLASS
  1
DIMASSOC
  2
AcDbDimAssoc
  3
"AcDbDimAssoc|Product Desc:     AcDim ARX App For Dimension|Company:          Autodesk, Inc.|WEB Address:      www.autodesk.com"
 90
        0
280
     0
281
     0
  0
CLASS
  1
ACDBDICTIONARYWDFLT
  2
AcDbDictionaryWithDefault
  3
ObjectDBX Classes
 90
        0
280
     0
281
     0
  0
CLASS
  1
ACDBPLACEHOLDER
  2
AcDbPlaceHolder
  3
ObjectDBX Classes
 90
        0
280
     0
281
     0
  0
CLASS
  1
LAYOUT
  2
AcDbLayout
  3
ObjectDBX Classes
 90
        0
280
     0
281
     0
  0
CLASS
  1
DICTIONARYVAR
  2
AcDbDictionaryVar
  3
ObjectDBX Classes
 90
        0
280
     0
281
     0
  0
CLASS
  1
MATERIAL
  2
AcDbMaterial
  3
ObjectDBX Classes
 90
     1153
280
     0
281
     0
  0
CLASS
  1
VISUALSTYLE
  2
AcDbVisualStyle
  3
ObjectDBX Classes
 90
     4095
280
     0
281
     0
  0
CLASS
  1
TABLESTYLE
  2
AcDbTableStyle
  3
ObjectDBX Classes
 90
     4095
280
     0
281
     0
  0
CLASS
  1
SCALE
  2
AcDbScale
  3
ObjectDBX Classes
 90
     1153
280
     0
281
     0
  0
CLASS
  1
MLEADERSTYLE
  2
AcDbMLeaderStyle
  3
ACDB_MLEADERSTYLE_CLASS
 90
     4095
280
     0
281
     0
  0
CLASS
  1
ACDBSECTIONVIEWSTYLE
  2
AcDbSectionViewStyle
  3
ObjectDBX Classes
 90
     1025
280
     0
281
     0
  0
CLASS
  1
ACDBDETAILVIEWSTYLE
  2
AcDbDetailViewStyle
  3
ObjectDBX Classes
 90
     1025
280
     0
281
     0
  0
CLASS
  1
ACDB_MTEXTOBJECTCONTEXTDATA_CLASS
  2
AcDbMTextObjectContextData
  3
ObjectDBX Classes
 90
     1153
280
     0
281
     0
  0
CLASS
  1
ACDB_ALDIMOBJECTCONTEXTDATA_CLASS
  2
AcDbAlignedDimensionObjectContextData
  3
ObjectDBX Classes
 90
     1153
280
     0
281
     0
  0
CLASS
  1
SORTENTSTABLE
  2
AcDbSortentsTable
  3
ObjectDBX Classes
 90
        0
280
     0
281
     0
  0
CLASS
  1
CELLSTYLEMAP
  2
AcDbCellStyleMap
  3
ObjectDBX Classes
 90
     1152
280
     0
281
     0
  0
ENDSEC
  0
SECTION
  2
TABLES
  0
TABLE
  2
VPORT
  5
8
102
{ACAD_XDICTIONARY
360
2404
102
}
330
0
100
AcDbSymbolTable
 70
     1
  0
VPORT
  5
1A80
330
8
100
AcDbSymbolTableRecord
100
AcDbViewportTableRecord
  2
*Active
 70
     0
 10
0.0
 20
0.0
 11
1.0
 21
1.0
 12
3673.014481771301
 22
466.7447213634239
 13
0.0
 23
0.0
 14
1.0
 24
1.0
 15
0.0
 25
0.0
 16
0.0
 26
0.0
 36
1.0
 17
0.0
 27
0.0
 37
0.0
 40
360.3054512145977
 41
2.511936339522546
 42
50.0
 43
0.0
 44
0.0
 50
0.0
 51
0.0
 71
     0
 72
   100
 73
     1
 74
     1
 75
     0
 76
     0
 77
     0
 78
     0
281
     0
 65
     1
110
0.0
120
0.0
130
0.0
111
1.0
121
0.0
131
0.0
112
0.0
122
1.0
132
0.0
 79
     0
146
0.0
1001
ACAD_NAV_VCDISPLAY
1070
     3
  0
ENDTAB
  0
TABLE
  2
LTYPE
  5
5
330
0
100
AcDbSymbolTable
 70
     6
  0
LTYPE
  5
15
330
5
100
AcDbSymbolTableRecord
100
AcDbLinetypeTableRecord
  2
BYBLOCK
 70
     0
  3

 72
    65
 73
     0
 40
0.0
  0
LTYPE
  5
16
330
5
100
AcDbSymbolTableRecord
100
AcDbLinetypeTableRecord
  2
BYLAYER
 70
     0
  3

 72
    65
 73
     0
 40
0.0
  0
LTYPE
  5
17
330
5
100
AcDbSymbolTableRecord
100
AcDbLinetypeTableRecord
  2
CONTINUOUS
 70
     0
  3
Solid line
 72
    65
 73
     0
 40
0.0
  0
LTYPE
  5
18
330
5
100
AcDbSymbolTableRecord
100
AcDbLinetypeTableRecord
  2
DASHED
 70
     0
  3
__ __ __ __ __ __ __ __ __ __ __ __ __ __ __ __
 72
    65
 73
     2
 40
0.75
 49
0.5
 74
     0
 49
-0.25
 74
     0
  0
LTYPE
  5
19
330
5
100
AcDbSymbolTableRecord
100
AcDbLinetypeTableRecord
  2
CENTER
 70
     0
  3
____ _ ____ _ ____ _ ____ _ ____ _ ____ _ ____ 
 72
    65
 73
     4
 40
2.0
 49
1.25
 74
     0
 49
-0.25
 74
     0
 49
0.25
 74
     0
 49
-0.25
 74
     0
  0
ENDTAB
  0
TABLE
  2
LAYER
  5
2
102
{ACAD_XDICTIONARY
360
1AEA
102
}
330
0
100
AcDbSymbolTable
 70
     9
  0
LAYER
  5
F
102
{ACAD_XDICTIONARY
360
23F2
102
}
330
2
100
AcDbSymbolTableRecord
100
AcDbLayerTableRecord
  2
0
 70
     0
 62
     7
  6
CONTINUOUS
370
    -3
390
F
  0
LAYER
  5
1C
102
{ACAD_XDICTIONARY
360
23F4
102
}
330
2
100
AcDbSymbolTableRecord
100
AcDbLayerTableRecord
  2
M0
 70
     0
 62
     7
  6
CONTINUOUS
370
    -3
390
F
  0
LAYER
  5
18E4
330
2
100
AcDbSymbolTableRecord
100
AcDbLayerTableRecord
  2
DEFPOINTS
 70
     0
 62
     7
  6
CONTINUOUS
290
     0
370
    -3
390
E4F
  0
LAYER
  5
1AE1
102
{ACAD_XDICTIONARY
360
1AE2
102
}
330
2
100
AcDbSymbolTableRecord
100
AcDbLayerTableRecord
  2
OILES
 70
     0
 62
     7
  6
CONTINUOUS
370
    -3
390
E4F
  0
LAYER
  5
3680
102
{ACAD_XDICTIONARY
360
3681
102
}
330
2
100
AcDbSymbolTableRecord
100
AcDbLayerTableRecord
  2
OILES @ 1
 70
     0
 62
     7
  6
CONTINUOUS
370
    -3
390
E4F
1001
AcadAnnotativeDecomposition
1000
AnnotativeData
1002
{
1070
     1
1070
     1
1002
}
  0
ENDTAB
  0
TABLE
  2
STYLE
  5
3
330
0
100
AcDbSymbolTable
 70
     2
  0
STYLE
  5
10
330
3
100
AcDbSymbolTableRecord
100
AcDbTextStyleTableRecord
  2
STANDARD
 70
     0
 40
0.0
 41
1.0
 50
0.0
 71
     0
 42
0.2
  3
txt
  4
BIGFONT
  0
STYLE
  5
1AE3
330
3
100
AcDbSymbolTableRecord
100
AcDbTextStyleTableRecord
  2
OILES
 70
     0
 40
0.0
 41
0.7
 50
0.0
 71
     0
 42
3.5
  3
romans.shx
  4
extfont.shx
1001
AcadAnnotative
1000
AnnotativeData
1002
{
1070
     1
1070
     1
1002
}
  0
ENDTAB
  0
TABLE
  2
VIEW
  5
6
330
0
100
AcDbSymbolTable
 70
     0
  0
ENDTAB
  0
TABLE
  2
UCS
  5
7
330
0
100
AcDbSymbolTable
 70
     0
  0
ENDTAB
  0
TABLE
  2
APPID
  5
9
330
0
100
AcDbSymbolTable
 70
     9
  0
APPID
  5
11
330
9
100
AcDbSymbolTableRecord
100
AcDbRegAppTableRecord
  2
ACAD
 70
     0
  0
APPID
  5
1AE5
330
9
100
AcDbSymbolTableRecord
100
AcDbRegAppTableRecord
  2
ACAD_NAV_VCDISPLAY
 70
     0
  0
APPID
  5
1AE6
330
9
100
AcDbSymbolTableRecord
100
AcDbRegAppTableRecord
  2
AcadAnnotative
 70
     0
  0
APPID
  5
1AE7
330
9
100
AcDbSymbolTableRecord
100
AcDbRegAppTableRecord
  2
ACAD_DSTYLE_DIMJAG
 70
     0
  0
APPID
  5
1AE8
330
9
100
AcDbSymbolTableRecord
100
AcDbRegAppTableRecord
  2
ACAD_DSTYLE_DIMTALN
 70
     0
  0
APPID
  5
1AE9
330
9
100
AcDbSymbolTableRecord
100
AcDbRegAppTableRecord
  2
AcDbBlockRepETag
 70
     0
  0
APPID
  5
2304
330
9
100
AcDbSymbolTableRecord
100
AcDbRegAppTableRecord
  2
ACAD_EXEMPT_FROM_CAD_STANDARDS
 70
     0
  0
APPID
  5
23FC
330
9
100
AcDbSymbolTableRecord
100
AcDbRegAppTableRecord
  2
AcadAnnotativeDecomposition
 70
     0
  0
APPID
  5
243E
330
9
100
AcDbSymbolTableRecord
100
AcDbRegAppTableRecord
  2
ACAD_MLEADERVER
 70
     0
  0
ENDTAB
  0
TABLE
  2
DIMSTYLE
  5
A
330
0
100
AcDbSymbolTable
 70
     4
100
AcDbDimStyleTable
 71
     1
340
1AE4
  0
DIMSTYLE
105
235
330
A
100
AcDbSymbolTableRecord
100
AcDbDimStyleTableRecord
  2
STANDARD
 70
     0
 41
3.0
 42
1.5
 43
10.0
 44
1.5
 77
     3
 78
     8
140
4.0
143
0.03937
147
0.5
173
     1
271
     2
340
10
341
28
343
28
344
28
371
    13
372
    13
  0
DIMSTYLE
105
1AE4
102
{ACAD_REACTORS
330
3110
330
3133
330
3144
330
3155
330
3166
330
3177
330
3188
330
3199
330
31AA
330
31BB
330
31CC
330
31E6
330
31F9
330
3213
102
}
330
A
100
AcDbSymbolTableRecord
100
AcDbDimStyleTableRecord
  2
A1  1-1
 70
     0
 41
4.0
 42
1.0
 43
7.0
 44
1.0
 73
     0
 74
     0
 77
     1
 78
     8
140
6.0
141
2.5
143
0.03937007874016
147
2.0
171
     3
172
     1
176
     4
177
     4
178
   255
271
     1
272
     1
274
     3
283
     0
284
     8
340
1AE3
341
28
342
28
371
    -1
372
    -1
1001
AcadAnnotative
1000
AnnotativeData
1002
{
1070
     1
1070
     1
1002
}
1001
ACAD_DSTYLE_DIMJAG
1070
   388
1040
1.5
1001
ACAD_DSTYLE_DIMTALN
1070
   392
1070
     0
  0
ENDTAB
  0
TABLE
  2
BLOCK_RECORD
  5
1
330
0
100
AcDbSymbolTable
 70
    78
  0
BLOCK_RECORD
  5
1E
102
{ACAD_XDICTIONARY
360
2345
102
}
330
1
100
AcDbSymbolTableRecord
100
AcDbBlockTableRecord
  2
*MODEL_SPACE
340
E52
  0
BLOCK_RECORD
  5
21
330
1
100
AcDbSymbolTableRecord
100
AcDbBlockTableRecord
  2
*PAPER_SPACE
340
E53
  0
BLOCK_RECORD
  5
28
330
1
100
AcDbSymbolTableRecord
100
AcDbBlockTableRecord
  2
_OPEN
340
0
102
{BLKREFS
331
35B7
331
35B8
331
35C0
331
35C1
331
35CB
331
35CC
331
35D4
331
35D5
331
35DD
331
35DE
331
35E6
331
35E7
331
35EF
331
35F0
331
35F8
331
35F9
331
3601
331
3602
331
360A
331
360B
331
3613
331
3614
331
361C
331
361D
331
3625
331
3626
331
362E
331
362F
102
}
  0
BLOCK_RECORD
  5
3115
330
1
100
AcDbSymbolTableRecord
100
AcDbBlockTableRecord
  2
*D63
340
0
  0
BLOCK_RECORD
  5
3138
330
1
100
AcDbSymbolTableRecord
100
AcDbBlockTableRecord
  2
*D64
340
0
  0
BLOCK_RECORD
  5
3149
330
1
100
AcDbSymbolTableRecord
100
AcDbBlockTableRecord
  2
*D65
340
0
  0
BLOCK_RECORD
  5
315A
330
1
100
AcDbSymbolTableRecord
100
AcDbBlockTableRecord
  2
*D66
340
0
  0
BLOCK_RECORD
  5
316B
330
1
100
AcDbSymbolTableRecord
100
AcDbBlockTableRecord
  2
*D67
340
0
  0
BLOCK_RECORD
  5
317C
330
1
100
AcDbSymbolTableRecord
100
AcDbBlockTableRecord
  2
*D68
340
0
  0
BLOCK_RECORD
  5
318D
330
1
100
AcDbSymbolTableRecord
100
AcDbBlockTableRecord
  2
*D69
340
0
  0
BLOCK_RECORD
  5
319E
330
1
100
AcDbSymbolTableRecord
100
AcDbBlockTableRecord
  2
*D70
340
0
  0
BLOCK_RECORD
  5
31AF
330
1
100
AcDbSymbolTableRecord
100
AcDbBlockTableRecord
  2
*D71
340
0
  0
BLOCK_RECORD
  5
31C0
330
1
100
AcDbSymbolTableRecord
100
AcDbBlockTableRecord
  2
*D72
340
0
  0
BLOCK_RECORD
  5
31D1
330
1
100
AcDbSymbolTableRecord
100
AcDbBlockTableRecord
  2
*D73
340
0
  0
BLOCK_RECORD
  5
31EB
330
1
100
AcDbSymbolTableRecord
100
AcDbBlockTableRecord
  2
*D74
340
0
  0
BLOCK_RECORD
  5
31FE
330
1
100
AcDbSymbolTableRecord
100
AcDbBlockTableRecord
  2
*D75
340
0
  0
BLOCK_RECORD
  5
3218
330
1
100
AcDbSymbolTableRecord
100
AcDbBlockTableRecord
  2
*D76
340
0
  0
ENDTAB
  0
ENDSEC
  0
SECTION
  2
BLOCKS
  0
BLOCK
  5
1F
330
1E
100
AcDbEntity
  8
0
100
AcDbBlockBegin
  2
*MODEL_SPACE
 70
     0
 10
0.0
 20
0.0
 30
0.0
  3
*MODEL_SPACE
  1

  0
ENDBLK
  5
20
330
1E
100
AcDbEntity
  8
0
100
AcDbBlockEnd
  0
BLOCK
  5
22
330
21
100
AcDbEntity
 67
     1
  8
0
100
AcDbBlockBegin
  2
*PAPER_SPACE
 70
     0
 10
0.0
 20
0.0
 30
0.0
  3
*PAPER_SPACE
  1

  0
ENDBLK
  5
23
330
21
100
AcDbEntity
 67
     1
  8
0
100
AcDbBlockEnd
  0
BLOCK
  5
29
330
28
100
AcDbEntity
  8
0
100
AcDbBlockBegin
  2
_OPEN
 70
     0
 10
0.0
 20
0.0
 30
0.0
  3
_OPEN
  1

  0
LINE
  5
2A
330
28
100
AcDbEntity
  8
0
 62
     0
370
    13
100
AcDbLine
 10
-0.9659259999999999
 20
0.25882
 30
0.0
 11
0.0
 21
0.0
 31
0.0
  0
LINE
  5
2B
330
28
100
AcDbEntity
  8
0
 62
     0
370
    13
100
AcDbLine
 10
0.0
 20
0.0
 30
0.0
 11
-0.9659259999999999
 21
-0.25882
 31
0.0
  0
LINE
  5
2C
330
28
100
AcDbEntity
  8
0
 62
     0
370
    13
100
AcDbLine
 10
0.0
 20
0.0
 30
0.0
 11
-1.0
 21
0.0
 31
0.0
  0
ENDBLK
  5
2D
330
28
100
AcDbEntity
  8
0
100
AcDbBlockEnd
  0
BLOCK
  5
3116
330
3115
100
AcDbEntity
  8
0
370
    25
100
AcDbBlockBegin
  2
*D63
 70
     1
 10
0.0
 20
0.0
 30
0.0
  3
*D63
  1

  0
LINE
  5
362B
330
3115
100
AcDbEntity
  8
OILES
 62
     4
100
AcDbLine
 10
3387.276657652105
 20
507.4938551392373
 30
0.0
 11
3387.276657652105
 21
551.2308845264815
 31
0.0
  0
LINE
  5
362C
330
3115
100
AcDbEntity
  8
OILES
 62
     4
100
AcDbLine
 10
3717.276642652105
 20
507.4938551392373
 30
0.0
 11
3717.276642652105
 21
551.2308845264815
 31
0.0
  0
LINE
  5
362D
330
3115
100
AcDbEntity
  8
OILES
 62
     4
100
AcDbLine
 10
3391.276657652105
 20
550.2308845264815
 30
0.0
 11
3713.276642652105
 21
550.2308845264815
 31
0.0
  0
INSERT
  5
362E
330
3115
100
AcDbEntity
  8
OILES
 62
     4
100
AcDbBlockReference
  2
_OPEN
 10
3387.276657652105
 20
550.2308845264815
 30
0.0
 41
4.0
 42
4.0
 43
4.0
 50
180.0
  0
INSERT
  5
362F
330
3115
100
AcDbEntity
  8
OILES
 62
     4
100
AcDbBlockReference
  2
_OPEN
 10
3717.276642652105
 20
550.2308845264815
 30
0.0
 41
4.0
 42
4.0
 43
4.0
  0
MTEXT
  5
3630
330
3115
100
AcDbEntity
  8
OILES
 62
   255
100
AcDbMText
 10
3552.276650152105
 20
555.2308845264815
 30
0.0
 40
6.0
 41
0.0
 71
     5
 72
     1
  1
330
  7
OILES
 73
     1
 44
1.0
1001
ACAD
1000
MTEXTBEGIN
1070
    73
1070
     1
1070
    44
1040
1.0
1070
    74
1070
     0
1000
MTEXTEND
  0
POINT
  5
3631
330
3115
100
AcDbEntity
  8
DEFPOINTS
 62
     0
100
AcDbPoint
 10
3387.276657652105
 20
506.4938551392374
 30
0.0
  0
POINT
  5
3632
330
3115
100
AcDbEntity
  8
DEFPOINTS
 62
     0
100
AcDbPoint
 10
3717.276642652105
 20
506.4938551392374
 30
0.0
  0
POINT
  5
3633
330
3115
100
AcDbEntity
  8
DEFPOINTS
 62
     0
100
AcDbPoint
 10
3717.276642652105
 20
550.2308845264815
 30
0.0
  0
ENDBLK
  5
3117
330
3115
100
AcDbEntity
  8
0
370
    25
100
AcDbBlockEnd
  0
BLOCK
  5
3139
330
3138
100
AcDbEntity
  8
0
370
    25
100
AcDbBlockBegin
  2
*D64
 70
     1
 10
0.0
 20
0.0
 30
0.0
  3
*D64
  1

  0
LINE
  5
3622
330
3138
100
AcDbEntity
  8
OILES
 62
     4
100
AcDbLine
 10
3362.276657652105
 20
535.9938551392374
 30
0.0
 11
3362.276657652105
 21
572.3323019634908
 31
0.0
  0
LINE
  5
3623
330
3138
100
AcDbEntity
  8
OILES
 62
     4
100
AcDbLine
 10
3742.276642652105
 20
535.9938551392374
 30
0.0
 11
3742.276642652105
 21
572.3323019634908
 31
0.0
  0
LINE
  5
3624
330
3138
100
AcDbEntity
  8
OILES
 62
     4
100
AcDbLine
 10
3366.276657652105
 20
571.3323019634908
 30
0.0
 11
3738.276642652105
 21
571.3323019634908
 31
0.0
  0
INSERT
  5
3625
330
3138
100
AcDbEntity
  8
OILES
 62
     4
100
AcDbBlockReference
  2
_OPEN
 10
3362.276657652105
 20
571.3323019634908
 30
0.0
 41
4.0
 42
4.0
 43
4.0
 50
180.0
  0
INSERT
  5
3626
330
3138
100
AcDbEntity
  8
OILES
 62
     4
100
AcDbBlockReference
  2
_OPEN
 10
3742.276642652105
 20
571.3323019634908
 30
0.0
 41
4.0
 42
4.0
 43
4.0
  0
MTEXT
  5
3627
330
3138
100
AcDbEntity
  8
OILES
 62
   255
100
AcDbMText
 10
3552.276650152105
 20
576.3323019634908
 30
0.0
 40
6.0
 41
0.0
 71
     5
 72
     1
  1
380
  7
OILES
 73
     1
 44
1.0
1001
ACAD
1000
MTEXTBEGIN
1070
    73
1070
     1
1070
    44
1040
1.0
1070
    74
1070
     0
1000
MTEXTEND
  0
POINT
  5
3628
330
3138
100
AcDbEntity
  8
DEFPOINTS
 62
     0
100
AcDbPoint
 10
3362.276657652105
 20
534.9938551392374
 30
0.0
  0
POINT
  5
3629
330
3138
100
AcDbEntity
  8
DEFPOINTS
 62
     0
100
AcDbPoint
 10
3742.276642652105
 20
534.9938551392374
 30
0.0
  0
POINT
  5
362A
330
3138
100
AcDbEntity
  8
DEFPOINTS
 62
     0
100
AcDbPoint
 10
3742.276642652105
 20
571.3323019634908
 30
0.0
  0
ENDBLK
  5
313A
330
3138
100
AcDbEntity
  8
0
370
    25
100
AcDbBlockEnd
  0
BLOCK
  5
314A
330
3149
100
AcDbEntity
  8
0
370
    25
100
AcDbBlockBegin
  2
*D65
 70
     1
 10
0.0
 20
0.0
 30
0.0
  3
*D65
  1

  0
LINE
  5
3619
330
3149
100
AcDbEntity
  8
OILES
 62
     4
100
AcDbLine
 10
3724.776642652107
 20
499.9938551392376
 30
0.0
 11
3766.368024638993
 21
499.9938551392376
 31
0.0
  0
LINE
  5
361A
330
3149
100
AcDbEntity
  8
OILES
 62
     4
100
AcDbLine
 10
3724.776642652107
 20
389.9938701392376
 30
0.0
 11
3766.368024638993
 21
389.9938701392376
 31
0.0
  0
LINE
  5
361B
330
3149
100
AcDbEntity
  8
OILES
 62
     4
100
AcDbLine
 10
3765.368024638994
 20
495.9938551392376
 30
0.0
 11
3765.368024638994
 21
393.9938701392376
 31
0.0
  0
INSERT
  5
361C
330
3149
100
AcDbEntity
  8
OILES
 62
     4
100
AcDbBlockReference
  2
_OPEN
 10
3765.368024638994
 20
499.9938551392376
 30
0.0
 41
4.0
 42
4.0
 43
4.0
 50
90.0
  0
INSERT
  5
361D
330
3149
100
AcDbEntity
  8
OILES
 62
     4
100
AcDbBlockReference
  2
_OPEN
 10
3765.368024638994
 20
389.9938701392376
 30
0.0
 41
4.0
 42
4.0
 43
4.0
 50
270.0
  0
MTEXT
  5
361E
330
3149
100
AcDbEntity
  8
OILES
 62
   255
100
AcDbMText
 10
3760.368024638992
 20
444.9938626392364
 30
0.0
 40
6.0
 41
0.0
 71
     5
 72
     1
  1
110
  7
OILES
 11
0.0000000000000001
 21
1.0
 31
0.0
 73
     1
 44
1.0
1001
ACAD
1000
MTEXTBEGIN
1070
    73
1070
     1
1070
    44
1040
1.0
1070
    74
1070
     0
1000
MTEXTEND
  0
POINT
  5
361F
330
3149
100
AcDbEntity
  8
DEFPOINTS
 62
     0
100
AcDbPoint
 10
3723.776642652107
 20
499.9938551392376
 30
0.0
  0
POINT
  5
3620
330
3149
100
AcDbEntity
  8
DEFPOINTS
 62
     0
100
AcDbPoint
 10
3723.776642652107
 20
389.9938701392376
 30
0.0
  0
POINT
  5
3621
330
3149
100
AcDbEntity
  8
DEFPOINTS
 62
     0
100
AcDbPoint
 10
3765.368024638994
 20
389.9938701392376
 30
0.0
  0
ENDBLK
  5
314B
330
3149
100
AcDbEntity
  8
0
370
    25
100
AcDbBlockEnd
  0
BLOCK
  5
315B
330
315A
100
AcDbEntity
  8
0
370
    25
100
AcDbBlockBegin
  2
*D66
 70
     1
 10
0.0
 20
0.0
 30
0.0
  3
*D66
  1

  0
LINE
  5
3610
330
315A
100
AcDbEntity
  8
OILES
 62
     4
100
AcDbLine
 10
3724.776642652107
 20
389.9938701392376
 30
0.0
 11
3766.368024638995
 21
389.9938701392376
 31
0.0
  0
LINE
  5
3611
330
315A
100
AcDbEntity
  8
OILES
 62
     4
100
AcDbLine
 10
3743.276642652107
 20
354.9938701392374
 30
0.0
 11
3766.368024638995
 21
354.9938701392374
 31
0.0
  0
LINE
  5
3612
330
315A
100
AcDbEntity
  8
OILES
 62
     4
100
AcDbLine
 10
3765.368024638995
 20
385.9938701392376
 30
0.0
 11
3765.368024638995
 21
358.9938701392374
 31
0.0
  0
INSERT
  5
3613
330
315A
100
AcDbEntity
  8
OILES
 62
     4
100
AcDbBlockReference
  2
_OPEN
 10
3765.368024638995
 20
389.9938701392376
 30
0.0
 41
4.0
 42
4.0
 43
4.0
 50
90.0
  0
INSERT
  5
3614
330
315A
100
AcDbEntity
  8
OILES
 62
     4
100
AcDbBlockReference
  2
_OPEN
 10
3765.368024638995
 20
354.9938701392374
 30
0.0
 41
4.0
 42
4.0
 43
4.0
 50
270.0
  0
MTEXT
  5
3615
330
315A
100
AcDbEntity
  8
OILES
 62
   255
100
AcDbMText
 10
3760.368024638994
 20
372.4938701392364
 30
0.0
 40
6.0
 41
0.0
 71
     5
 72
     1
  1
35
  7
OILES
 11
0.0000000000000001
 21
1.0
 31
0.0
 73
     1
 44
1.0
1001
ACAD
1000
MTEXTBEGIN
1070
    73
1070
     1
1070
    44
1040
1.0
1070
    74
1070
     0
1000
MTEXTEND
  0
POINT
  5
3616
330
315A
100
AcDbEntity
  8
DEFPOINTS
 62
     0
100
AcDbPoint
 10
3723.776642652107
 20
389.9938701392376
 30
0.0
  0
POINT
  5
3617
330
315A
100
AcDbEntity
  8
DEFPOINTS
 62
     0
100
AcDbPoint
 10
3742.276642652107
 20
354.9938701392374
 30
0.0
  0
POINT
  5
3618
330
315A
100
AcDbEntity
  8
DEFPOINTS
 62
     0
100
AcDbPoint
 10
3765.368024638995
 20
354.9938701392374
 30
0.0
  0
ENDBLK
  5
315C
330
315A
100
AcDbEntity
  8
0
370
    25
100
AcDbBlockEnd
  0
BLOCK
  5
316C
330
316B
100
AcDbEntity
  8
0
370
    25
100
AcDbBlockBegin
  2
*D67
 70
     1
 10
0.0
 20
0.0
 30
0.0
  3
*D67
  1

  0
LINE
  5
3607
330
316B
100
AcDbEntity
  8
OILES
 62
     4
100
AcDbLine
 10
3743.276642652107
 20
534.9938551392376
 30
0.0
 11
3792.598499550584
 21
534.9938551392376
 31
0.0
  0
LINE
  5
3608
330
316B
100
AcDbEntity
  8
OILES
 62
     4
100
AcDbLine
 10
3767.368024638989
 20
354.9938701392376
 30
0.0
 11
3792.598499550584
 21
354.9938701392376
 31
0.0
  0
LINE
  5
3609
330
316B
100
AcDbEntity
  8
OILES
 62
     4
100
AcDbLine
 10
3791.598499550583
 20
530.9938551392376
 30
0.0
 11
3791.598499550583
 21
358.9938701392376
 31
0.0
  0
INSERT
  5
360A
330
316B
100
AcDbEntity
  8
OILES
 62
     4
100
AcDbBlockReference
  2
_OPEN
 10
3791.598499550583
 20
534.9938551392376
 30
0.0
 41
4.0
 42
4.0
 43
4.0
 50
90.0
  0
INSERT
  5
360B
330
316B
100
AcDbEntity
  8
OILES
 62
     4
100
AcDbBlockReference
  2
_OPEN
 10
3791.598499550583
 20
354.9938701392376
 30
0.0
 41
4.0
 42
4.0
 43
4.0
 50
270.0
  0
MTEXT
  5
360C
330
316B
100
AcDbEntity
  8
OILES
 62
   255
100
AcDbMText
 10
3786.598499550583
 20
444.9938626392365
 30
0.0
 40
6.0
 41
0.0
 71
     5
 72
     1
  1
180
  7
OILES
 11
0.0000000000000001
 21
1.0
 31
0.0
 73
     1
 44
1.0
1001
ACAD
1000
MTEXTBEGIN
1070
    73
1070
     1
1070
    44
1040
1.0
1070
    74
1070
     0
1000
MTEXTEND
  0
POINT
  5
360D
330
316B
100
AcDbEntity
  8
DEFPOINTS
 62
     0
100
AcDbPoint
 10
3742.276642652107
 20
534.9938551392376
 30
0.0
  0
POINT
  5
360E
330
316B
100
AcDbEntity
  8
DEFPOINTS
 62
     0
100
AcDbPoint
 10
3766.368024638989
 20
354.9938701392376
 30
0.0
  0
POINT
  5
360F
330
316B
100
AcDbEntity
  8
DEFPOINTS
 62
     0
100
AcDbPoint
 10
3791.598499550583
 20
354.9938701392376
 30
0.0
  0
ENDBLK
  5
316D
330
316B
100
AcDbEntity
  8
0
370
    25
100
AcDbBlockEnd
  0
BLOCK
  5
317D
330
317C
100
AcDbEntity
  8
0
370
    25
100
AcDbBlockBegin
  2
*D68
 70
     1
 10
0.0
 20
0.0
 30
0.0
  3
*D68
  1

  0
LINE
  5
35FE
330
317C
100
AcDbEntity
  8
OILES
 62
     4
100
AcDbLine
 10
3362.276657652105
 20
353.9938701392373
 30
0.0
 11
3362.276657652105
 21
332.0286218570773
 31
0.0
  0
LINE
  5
35FF
330
317C
100
AcDbEntity
  8
OILES
 62
     4
100
AcDbLine
 10
3412.276657652105
 20
398.4938701392374
 30
0.0
 11
3412.276657652105
 21
332.0286218570773
 31
0.0
  0
LINE
  5
3600
330
317C
100
AcDbEntity
  8
OILES
 62
     4
100
AcDbLine
 10
3366.276657652105
 20
333.0286218570773
 30
0.0
 11
3408.276657652105
 21
333.0286218570773
 31
0.0
  0
INSERT
  5
3601
330
317C
100
AcDbEntity
  8
OILES
 62
     4
100
AcDbBlockReference
  2
_OPEN
 10
3362.276657652105
 20
333.0286218570773
 30
0.0
 41
4.0
 42
4.0
 43
4.0
 50
180.0
  0
INSERT
  5
3602
330
317C
100
AcDbEntity
  8
OILES
 62
     4
100
AcDbBlockReference
  2
_OPEN
 10
3412.276657652105
 20
333.0286218570773
 30
0.0
 41
4.0
 42
4.0
 43
4.0
  0
MTEXT
  5
3603
330
317C
100
AcDbEntity
  8
OILES
 62
   255
100
AcDbMText
 10
3387.276657652105
 20
338.0286218570773
 30
0.0
 40
6.0
 41
0.0
 71
     5
 72
     1
  1
50
  7
OILES
 73
     1
 44
1.0
1001
ACAD
1000
MTEXTBEGIN
1070
    73
1070
     1
1070
    44
1040
1.0
1070
    74
1070
     0
1000
MTEXTEND
  0
POINT
  5
3604
330
317C
100
AcDbEntity
  8
DEFPOINTS
 62
     0
100
AcDbPoint
 10
3362.276657652105
 20
354.9938701392373
 30
0.0
  0
POINT
  5
3605
330
317C
100
AcDbEntity
  8
DEFPOINTS
 62
     0
100
AcDbPoint
 10
3412.276657652105
 20
399.4938701392373
 30
0.0
  0
POINT
  5
3606
330
317C
100
AcDbEntity
  8
DEFPOINTS
 62
     0
100
AcDbPoint
 10
3412.276657652105
 20
333.0286218570773
 30
0.0
  0
ENDBLK
  5
317E
330
317C
100
AcDbEntity
  8
0
370
    25
100
AcDbBlockEnd
  0
BLOCK
  5
318E
330
318D
100
AcDbEntity
  8
0
370
    25
100
AcDbBlockBegin
  2
*D69
 70
     1
 10
0.0
 20
0.0
 30
0.0
  3
*D69
  1

  0
LINE
  5
35F5
330
318D
100
AcDbEntity
  8
OILES
 62
     4
100
AcDbLine
 10
3412.276657652105
 20
398.4938701392374
 30
0.0
 11
3412.276657652105
 21
332.0286218570773
 31
0.0
  0
LINE
  5
35F6
330
318D
100
AcDbEntity
  8
OILES
 62
     4
100
AcDbLine
 10
3482.276657652105
 20
398.4938701392374
 30
0.0
 11
3482.276657652105
 21
332.0286218570773
 31
0.0
  0
LINE
  5
35F7
330
318D
100
AcDbEntity
  8
OILES
 62
     4
100
AcDbLine
 10
3416.276657652105
 20
333.0286218570773
 30
0.0
 11
3478.276657652105
 21
333.0286218570773
 31
0.0
  0
INSERT
  5
35F8
330
318D
100
AcDbEntity
  8
OILES
 62
     4
100
AcDbBlockReference
  2
_OPEN
 10
3412.276657652105
 20
333.0286218570773
 30
0.0
 41
4.0
 42
4.0
 43
4.0
 50
180.0
  0
INSERT
  5
35F9
330
318D
100
AcDbEntity
  8
OILES
 62
     4
100
AcDbBlockReference
  2
_OPEN
 10
3482.276657652105
 20
333.0286218570773
 30
0.0
 41
4.0
 42
4.0
 43
4.0
  0
MTEXT
  5
35FA
330
318D
100
AcDbEntity
  8
OILES
 62
   255
100
AcDbMText
 10
3447.276657652105
 20
338.0286218570773
 30
0.0
 40
6.0
 41
0.0
 71
     5
 72
     1
  1
70
  7
OILES
 73
     1
 44
1.0
1001
ACAD
1000
MTEXTBEGIN
1070
    73
1070
     1
1070
    44
1040
1.0
1070
    74
1070
     0
1000
MTEXTEND
  0
POINT
  5
35FB
330
318D
100
AcDbEntity
  8
DEFPOINTS
 62
     0
100
AcDbPoint
 10
3412.276657652105
 20
399.4938701392373
 30
0.0
  0
POINT
  5
35FC
330
318D
100
AcDbEntity
  8
DEFPOINTS
 62
     0
100
AcDbPoint
 10
3482.276657652105
 20
399.4938701392373
 30
0.0
  0
POINT
  5
35FD
330
318D
100
AcDbEntity
  8
DEFPOINTS
 62
     0
100
AcDbPoint
 10
3482.276657652105
 20
333.0286218570773
 30
0.0
  0
ENDBLK
  5
318F
330
318D
100
AcDbEntity
  8
0
370
    25
100
AcDbBlockEnd
  0
BLOCK
  5
319F
330
319E
100
AcDbEntity
  8
0
370
    25
100
AcDbBlockBegin
  2
*D70
 70
     1
 10
0.0
 20
0.0
 30
0.0
  3
*D70
  1

  0
LINE
  5
35EC
330
319E
100
AcDbEntity
  8
OILES
 62
     4
100
AcDbLine
 10
3482.276657652105
 20
398.4938701392374
 30
0.0
 11
3482.276657652105
 21
332.0286218570773
 31
0.0
  0
LINE
  5
35ED
330
319E
100
AcDbEntity
  8
OILES
 62
     4
100
AcDbLine
 10
3552.276657652105
 20
398.4938701392374
 30
0.0
 11
3552.276657652105
 21
332.0286218570773
 31
0.0
  0
LINE
  5
35EE
330
319E
100
AcDbEntity
  8
OILES
 62
     4
100
AcDbLine
 10
3486.276657652105
 20
333.0286218570773
 30
0.0
 11
3548.276657652105
 21
333.0286218570773
 31
0.0
  0
INSERT
  5
35EF
330
319E
100
AcDbEntity
  8
OILES
 62
     4
100
AcDbBlockReference
  2
_OPEN
 10
3482.276657652105
 20
333.0286218570773
 30
0.0
 41
4.0
 42
4.0
 43
4.0
 50
180.0
  0
INSERT
  5
35F0
330
319E
100
AcDbEntity
  8
OILES
 62
     4
100
AcDbBlockReference
  2
_OPEN
 10
3552.276657652105
 20
333.0286218570773
 30
0.0
 41
4.0
 42
4.0
 43
4.0
  0
MTEXT
  5
35F1
330
319E
100
AcDbEntity
  8
OILES
 62
   255
100
AcDbMText
 10
3517.276657652105
 20
338.0286218570773
 30
0.0
 40
6.0
 41
0.0
 71
     5
 72
     1
  1
70
  7
OILES
 73
     1
 44
1.0
1001
ACAD
1000
MTEXTBEGIN
1070
    73
1070
     1
1070
    44
1040
1.0
1070
    74
1070
     0
1000
MTEXTEND
  0
POINT
  5
35F2
330
319E
100
AcDbEntity
  8
DEFPOINTS
 62
     0
100
AcDbPoint
 10
3482.276657652105
 20
399.4938701392373
 30
0.0
  0
POINT
  5
35F3
330
319E
100
AcDbEntity
  8
DEFPOINTS
 62
     0
100
AcDbPoint
 10
3552.276657652105
 20
399.4938701392373
 30
0.0
  0
POINT
  5
35F4
330
319E
100
AcDbEntity
  8
DEFPOINTS
 62
     0
100
AcDbPoint
 10
3552.276657652105
 20
333.0286218570773
 30
0.0
  0
ENDBLK
  5
31A0
330
319E
100
AcDbEntity
  8
0
370
    25
100
AcDbBlockEnd
  0
BLOCK
  5
31B0
330
31AF
100
AcDbEntity
  8
0
370
    25
100
AcDbBlockBegin
  2
*D71
 70
     1
 10
0.0
 20
0.0
 30
0.0
  3
*D71
  1

  0
LINE
  5
35E3
330
31AF
100
AcDbEntity
  8
OILES
 62
     4
100
AcDbLine
 10
3552.276657652105
 20
398.4938701392374
 30
0.0
 11
3552.276657652105
 21
332.0286218570773
 31
0.0
  0
LINE
  5
35E4
330
31AF
100
AcDbEntity
  8
OILES
 62
     4
100
AcDbLine
 10
3622.276642652105
 20
398.4938701392374
 30
0.0
 11
3622.276642652105
 21
332.0286218570773
 31
0.0
  0
LINE
  5
35E5
330
31AF
100
AcDbEntity
  8
OILES
 62
     4
100
AcDbLine
 10
3556.276657652105
 20
333.0286218570773
 30
0.0
 11
3618.276642652105
 21
333.0286218570773
 31
0.0
  0
INSERT
  5
35E6
330
31AF
100
AcDbEntity
  8
OILES
 62
     4
100
AcDbBlockReference
  2
_OPEN
 10
3552.276657652105
 20
333.0286218570773
 30
0.0
 41
4.0
 42
4.0
 43
4.0
 50
180.0
  0
INSERT
  5
35E7
330
31AF
100
AcDbEntity
  8
OILES
 62
     4
100
AcDbBlockReference
  2
_OPEN
 10
3622.276642652105
 20
333.0286218570773
 30
0.0
 41
4.0
 42
4.0
 43
4.0
  0
MTEXT
  5
35E8
330
31AF
100
AcDbEntity
  8
OILES
 62
   255
100
AcDbMText
 10
3587.276650152105
 20
338.0286218570773
 30
0.0
 40
6.0
 41
0.0
 71
     5
 72
     1
  1
70
  7
OILES
 73
     1
 44
1.0
1001
ACAD
1000
MTEXTBEGIN
1070
    73
1070
     1
1070
    44
1040
1.0
1070
    74
1070
     0
1000
MTEXTEND
  0
POINT
  5
35E9
330
31AF
100
AcDbEntity
  8
DEFPOINTS
 62
     0
100
AcDbPoint
 10
3552.276657652105
 20
399.4938701392373
 30
0.0
  0
POINT
  5
35EA
330
31AF
100
AcDbEntity
  8
DEFPOINTS
 62
     0
100
AcDbPoint
 10
3622.276642652105
 20
399.4938701392373
 30
0.0
  0
POINT
  5
35EB
330
31AF
100
AcDbEntity
  8
DEFPOINTS
 62
     0
100
AcDbPoint
 10
3622.276642652105
 20
333.0286218570773
 30
0.0
  0
ENDBLK
  5
31B1
330
31AF
100
AcDbEntity
  8
0
370
    25
100
AcDbBlockEnd
  0
BLOCK
  5
31C1
330
31C0
100
AcDbEntity
  8
0
370
    25
100
AcDbBlockBegin
  2
*D72
 70
     1
 10
0.0
 20
0.0
 30
0.0
  3
*D72
  1

  0
LINE
  5
35DA
330
31C0
100
AcDbEntity
  8
OILES
 62
     4
100
AcDbLine
 10
3622.276642652105
 20
398.4938701392374
 30
0.0
 11
3622.276642652105
 21
332.0286218570773
 31
0.0
  0
LINE
  5
35DB
330
31C0
100
AcDbEntity
  8
OILES
 62
     4
100
AcDbLine
 10
3692.276642652105
 20
398.4938701392374
 30
0.0
 11
3692.276642652105
 21
332.0286218570773
 31
0.0
  0
LINE
  5
35DC
330
31C0
100
AcDbEntity
  8
OILES
 62
     4
100
AcDbLine
 10
3626.276642652105
 20
333.0286218570773
 30
0.0
 11
3688.276642652105
 21
333.0286218570773
 31
0.0
  0
INSERT
  5
35DD
330
31C0
100
AcDbEntity
  8
OILES
 62
     4
100
AcDbBlockReference
  2
_OPEN
 10
3622.276642652105
 20
333.0286218570773
 30
0.0
 41
4.0
 42
4.0
 43
4.0
 50
180.0
  0
INSERT
  5
35DE
330
31C0
100
AcDbEntity
  8
OILES
 62
     4
100
AcDbBlockReference
  2
_OPEN
 10
3692.276642652105
 20
333.0286218570773
 30
0.0
 41
4.0
 42
4.0
 43
4.0
  0
MTEXT
  5
35DF
330
31C0
100
AcDbEntity
  8
OILES
 62
   255
100
AcDbMText
 10
3657.276642652105
 20
338.0286218570773
 30
0.0
 40
6.0
 41
0.0
 71
     5
 72
     1
  1
70
  7
OILES
 73
     1
 44
1.0
1001
ACAD
1000
MTEXTBEGIN
1070
    73
1070
     1
1070
    44
1040
1.0
1070
    74
1070
     0
1000
MTEXTEND
  0
POINT
  5
35E0
330
31C0
100
AcDbEntity
  8
DEFPOINTS
 62
     0
100
AcDbPoint
 10
3622.276642652105
 20
399.4938701392373
 30
0.0
  0
POINT
  5
35E1
330
31C0
100
AcDbEntity
  8
DEFPOINTS
 62
     0
100
AcDbPoint
 10
3692.276642652105
 20
399.4938701392373
 30
0.0
  0
POINT
  5
35E2
330
31C0
100
AcDbEntity
  8
DEFPOINTS
 62
     0
100
AcDbPoint
 10
3692.276642652105
 20
333.0286218570773
 30
0.0
  0
ENDBLK
  5
31C2
330
31C0
100
AcDbEntity
  8
0
370
    25
100
AcDbBlockEnd
  0
BLOCK
  5
31D2
330
31D1
100
AcDbEntity
  8
0
370
    25
100
AcDbBlockBegin
  2
*D73
 70
     1
 10
0.0
 20
0.0
 30
0.0
  3
*D73
  1

  0
LINE
  5
35D1
330
31D1
100
AcDbEntity
  8
OILES
 62
     4
100
AcDbLine
 10
3361.276657652107
 20
354.9938701392374
 30
0.0
 11
3336.411815096878
 21
354.9938701392374
 31
0.0
  0
LINE
  5
35D2
330
31D1
100
AcDbEntity
  8
OILES
 62
     4
100
AcDbLine
 10
3404.776657652107
 20
445.9938701392376
 30
0.0
 11
3336.411815096878
 21
445.9938701392376
 31
0.0
  0
LINE
  5
35D3
330
31D1
100
AcDbEntity
  8
OILES
 62
     4
100
AcDbLine
 10
3337.411815096878
 20
358.9938701392374
 30
0.0
 11
3337.411815096878
 21
441.9938701392376
 31
0.0
  0
INSERT
  5
35D4
330
31D1
100
AcDbEntity
  8
OILES
 62
     4
100
AcDbBlockReference
  2
_OPEN
 10
3337.411815096878
 20
354.9938701392374
 30
0.0
 41
4.0
 42
4.0
 43
4.0
 50
270.0
  0
INSERT
  5
35D5
330
31D1
100
AcDbEntity
  8
OILES
 62
     4
100
AcDbBlockReference
  2
_OPEN
 10
3337.411815096878
 20
445.9938701392376
 30
0.0
 41
4.0
 42
4.0
 43
4.0
 50
90.0
  0
MTEXT
  5
35D6
330
31D1
100
AcDbEntity
  8
OILES
 62
   255
100
AcDbMText
 10
3332.411815096878
 20
400.4938701392364
 30
0.0
 40
6.0
 41
0.0
 71
     5
 72
     1
  1
91
  7
OILES
 11
0.0000000000000001
 21
1.0
 31
0.0
 73
     1
 44
1.0
1001
ACAD
1000
MTEXTBEGIN
1070
    73
1070
     1
1070
    44
1040
1.0
1070
    74
1070
     0
1000
MTEXTEND
  0
POINT
  5
35D7
330
31D1
100
AcDbEntity
  8
DEFPOINTS
 62
     0
100
AcDbPoint
 10
3362.276657652107
 20
354.9938701392374
 30
0.0
  0
POINT
  5
35D8
330
31D1
100
AcDbEntity
  8
DEFPOINTS
 62
     0
100
AcDbPoint
 10
3405.776657652107
 20
445.9938701392376
 30
0.0
  0
POINT
  5
35D9
330
31D1
100
AcDbEntity
  8
DEFPOINTS
 62
     0
100
AcDbPoint
 10
3337.411815096878
 20
445.9938701392376
 30
0.0
  0
ENDBLK
  5
31D3
330
31D1
100
AcDbEntity
  8
0
370
    25
100
AcDbBlockEnd
  0
BLOCK
  5
31EC
330
31EB
100
AcDbEntity
  8
0
370
    25
100
AcDbBlockBegin
  2
*D74
 70
     1
 10
0.0
 20
0.0
 30
0.0
  3
*D74
  1

  0
LINE
  5
35C6
330
31EB
100
AcDbEntity
  8
OILES
 62
     4
100
AcDbLine
 10
3863.585736800302
 20
533.9938551392374
 30
0.0
 11
3863.585736800302
 21
551.2308845264815
 31
0.0
  0
LINE
  5
35C7
330
31EB
100
AcDbEntity
  8
OILES
 62
     4
100
AcDbLine
 10
3873.585736800302
 20
535.9938551392374
 30
0.0
 11
3873.585736800302
 21
551.2308845264815
 31
0.0
  0
LINE
  5
35C8
330
31EB
100
AcDbEntity
  8
OILES
 62
     4
100
AcDbLine
 10
3859.585736800302
 20
550.2308845264815
 30
0.0
 11
3855.585736800302
 21
550.2308845264815
 31
0.0
  0
LINE
  5
35C9
330
31EB
100
AcDbEntity
  8
OILES
 62
     4
100
AcDbLine
 10
3877.585736800302
 20
550.2308845264815
 30
0.0
 11
3891.785736800301
 21
550.2308845264815
 31
0.0
  0
LINE
  5
35CA
330
31EB
100
AcDbEntity
  8
OILES
 62
     4
100
AcDbLine
 10
3863.585736800302
 20
550.2308845264815
 30
0.0
 11
3873.585736800302
 21
550.2308845264815
 31
0.0
  0
INSERT
  5
35CB
330
31EB
100
AcDbEntity
  8
OILES
 62
     4
100
AcDbBlockReference
  2
_OPEN
 10
3863.585736800302
 20
550.2308845264815
 30
0.0
 41
4.0
 42
4.0
 43
4.0
  0
INSERT
  5
35CC
330
31EB
100
AcDbEntity
  8
OILES
 62
     4
100
AcDbBlockReference
  2
_OPEN
 10
3873.585736800302
 20
550.2308845264815
 30
0.0
 41
4.0
 42
4.0
 43
4.0
 50
180.0
  0
MTEXT
  5
35CD
330
31EB
100
AcDbEntity
  8
OILES
 62
   255
100
AcDbMText
 10
3886.685736800302
 20
555.2308845264815
 30
0.0
 40
6.0
 41
0.0
 71
     5
 72
     1
  1
10
  7
OILES
 73
     1
 44
1.0
1001
ACAD
1000
MTEXTBEGIN
1070
    73
1070
     1
1070
    44
1040
1.0
1070
    74
1070
     0
1000
MTEXTEND
  0
POINT
  5
35CE
330
31EB
100
AcDbEntity
  8
DEFPOINTS
 62
     0
100
AcDbPoint
 10
3863.585736800302
 20
532.9938551392374
 30
0.0
  0
POINT
  5
35CF
330
31EB
100
AcDbEntity
  8
DEFPOINTS
 62
     0
100
AcDbPoint
 10
3873.585736800302
 20
534.9938551392374
 30
0.0
  0
POINT
  5
35D0
330
31EB
100
AcDbEntity
  8
DEFPOINTS
 62
     0
100
AcDbPoint
 10
3873.585736800302
 20
550.2308845264815
 30
0.0
  0
ENDBLK
  5
31ED
330
31EB
100
AcDbEntity
  8
0
370
    25
100
AcDbBlockEnd
  0
BLOCK
  5
31FF
330
31FE
100
AcDbEntity
  8
0
370
    25
100
AcDbBlockBegin
  2
*D75
 70
     1
 10
0.0
 20
0.0
 30
0.0
  3
*D75
  1

  0
LINE
  5
35BD
330
31FE
100
AcDbEntity
  8
OILES
 62
     4
100
AcDbLine
 10
3863.585736800302
 20
552.2308845264815
 30
0.0
 11
3863.585736800302
 21
572.3323019634908
 31
0.0
  0
LINE
  5
35BE
330
31FE
100
AcDbEntity
  8
OILES
 62
     4
100
AcDbLine
 10
3940.985700800302
 20
525.9938551392374
 30
0.0
 11
3940.985700800302
 21
572.3323019634908
 31
0.0
  0
LINE
  5
35BF
330
31FE
100
AcDbEntity
  8
OILES
 62
     4
100
AcDbLine
 10
3867.585736800302
 20
571.3323019634908
 30
0.0
 11
3936.985700800302
 21
571.3323019634908
 31
0.0
  0
INSERT
  5
35C0
330
31FE
100
AcDbEntity
  8
OILES
 62
     4
100
AcDbBlockReference
  2
_OPEN
 10
3863.585736800302
 20
571.3323019634908
 30
0.0
 41
4.0
 42
4.0
 43
4.0
 50
180.0
  0
INSERT
  5
35C1
330
31FE
100
AcDbEntity
  8
OILES
 62
     4
100
AcDbBlockReference
  2
_OPEN
 10
3940.985700800302
 20
571.3323019634908
 30
0.0
 41
4.0
 42
4.0
 43
4.0
  0
MTEXT
  5
35C2
330
31FE
100
AcDbEntity
  8
OILES
 62
   255
100
AcDbMText
 10
3902.285718800302
 20
576.3323019634908
 30
0.0
 40
6.0
 41
0.0
 71
     5
 72
     1
  1
80
  7
OILES
 73
     1
 44
1.0
1001
ACAD
1000
MTEXTBEGIN
1070
    73
1070
     1
1070
    44
1040
1.0
1070
    74
1070
     0
1000
MTEXTEND
  0
POINT
  5
35C3
330
31FE
100
AcDbEntity
  8
DEFPOINTS
 62
     0
100
AcDbPoint
 10
3863.585736800302
 20
551.2308845264815
 30
0.0
  0
POINT
  5
35C4
330
31FE
100
AcDbEntity
  8
DEFPOINTS
 62
     0
100
AcDbPoint
 10
3940.985700800302
 20
524.9938551392374
 30
0.0
  0
POINT
  5
35C5
330
31FE
100
AcDbEntity
  8
DEFPOINTS
 62
     0
100
AcDbPoint
 10
3940.985700800302
 20
571.3323019634908
 30
0.0
  0
ENDBLK
  5
3200
330
31FE
100
AcDbEntity
  8
0
370
    25
100
AcDbBlockEnd
  0
BLOCK
  5
3219
330
3218
100
AcDbEntity
  8
0
370
    25
100
AcDbBlockBegin
  2
*D76
 70
     1
 10
0.0
 20
0.0
 30
0.0
  3
*D76
  1

  0
LINE
  5
35B4
330
3218
100
AcDbEntity
  8
OILES
 62
     4
100
AcDbLine
 10
3941.985700800304
 20
524.9938551392376
 30
0.0
 11
3974.899435938002
 21
524.9938551392376
 31
0.0
  0
LINE
  5
35B5
330
3218
100
AcDbEntity
  8
OILES
 62
     4
100
AcDbLine
 10
3941.985700800304
 20
364.9938701392374
 30
0.0
 11
3974.899435938002
 21
364.9938701392375
 31
0.0
  0
LINE
  5
35B6
330
3218
100
AcDbEntity
  8
OILES
 62
     4
100
AcDbLine
 10
3973.899435938002
 20
520.9938551392376
 30
0.0
 11
3973.899435938002
 21
368.9938701392375
 31
0.0
  0
INSERT
  5
35B7
330
3218
100
AcDbEntity
  8
OILES
 62
     4
100
AcDbBlockReference
  2
_OPEN
 10
3973.899435938002
 20
524.9938551392376
 30
0.0
 41
4.0
 42
4.0
 43
4.0
 50
90.0
  0
INSERT
  5
35B8
330
3218
100
AcDbEntity
  8
OILES
 62
     4
100
AcDbBlockReference
  2
_OPEN
 10
3973.899435938002
 20
364.9938701392375
 30
0.0
 41
4.0
 42
4.0
 43
4.0
 50
270.0
  0
MTEXT
  5
35B9
330
3218
100
AcDbEntity
  8
OILES
 62
   255
100
AcDbMText
 10
3968.899435938001
 20
444.9938626392363
 30
0.0
 40
6.0
 41
0.0
 71
     5
 72
     1
  1
160
  7
OILES
 11
0.0000000000000001
 21
1.0
 31
0.0
 73
     1
 44
1.0
1001
ACAD
1000
MTEXTBEGIN
1070
    73
1070
     1
1070
    44
1040
1.0
1070
    74
1070
     0
1000
MTEXTEND
  0
POINT
  5
35BA
330
3218
100
AcDbEntity
  8
DEFPOINTS
 62
     0
100
AcDbPoint
 10
3940.985700800304
 20
524.9938551392376
 30
0.0
  0
POINT
  5
35BB
330
3218
100
AcDbEntity
  8
DEFPOINTS
 62
     0
100
AcDbPoint
 10
3940.985700800304
 20
364.9938701392374
 30
0.0
  0
POINT
  5
35BC
330
3218
100
AcDbEntity
  8
DEFPOINTS
 62
     0
100
AcDbPoint
 10
3973.899435938002
 20
364.9938701392375
 30
0.0
  0
ENDBLK
  5
321A
330
3218
100
AcDbEntity
  8
0
370
    25
100
AcDbBlockEnd
  0
ENDSEC
  0
SECTION
  2
ENTITIES
  0
TEXT
  5
7A9
330
1E
100
AcDbEntity
  8
M0
 62
     5
100
AcDbText
 10
31.999983
 20
29.299992
 30
0.0
 40
6.0
  1
　
 41
0.833333
100
AcDbText
  0
MTEXT
  5
1B05
102
{ACAD_XDICTIONARY
360
1B06
102
}
330
1E
100
AcDbEntity
  8
OILES @ 1
100
AcDbMText
 10
3884.97416389435
 20
642.1023684828571
 30
0.0
 40
10.0
 41
206.1466201296853
 71
     1
 72
     5
  1
集中制御盤（SLE25052-N／S）
  7
OILES
 73
     1
 44
1.0
1001
AcDbBlockRepETag
1070
     1
1071
        0
1005
1B05
1001
AcadAnnotative
1000
AnnotativeData
1002
{
1070
     1
1070
     0
1002
}
1001
ACAD
1000
MTEXTBEGIN
1070
    73
1070
     1
1070
    44
1040
1.0
1070
    74
1070
     0
1000
MTEXTEND
1000
ACAD_MTEXT_DEFINED_HEIGHT_BEGIN
1070
    46
1040
3.499999999999971
1000
ACAD_MTEXT_DEFINED_HEIGHT_END
  0
MTEXT
  5
1B10
102
{ACAD_XDICTIONARY
360
1B11
102
}
330
1E
100
AcDbEntity
  8
OILES @ 1
100
AcDbMText
 10
3319.172575083829
 20
295.0530257459739
 30
0.0
 40
7.0
 41
86.55734597717856
 71
     1
 72
     5
  1
2021・02・25　作図
  7
OILES
 73
     1
 44
1.0
1001
AcadAnnotative
1000
AnnotativeData
1002
{
1070
     1
1070
     0
1002
}
1001
ACAD
1000
MTEXTBEGIN
1070
    73
1070
     1
1070
    44
1040
1.0
1070
    74
1070
     0
1000
MTEXTEND
1000
ACAD_MTEXT_DEFINED_HEIGHT_BEGIN
1070
    46
1040
3.499999999999971
1000
ACAD_MTEXT_DEFINED_HEIGHT_END
  0
LINE
  5
2A3C
330
1E
100
AcDbEntity
  8
OILES
100
AcDbLine
 10
3940.985700800302
 20
524.9938551392374
 30
0.0
 11
3940.985700800302
 21
364.9938701392374
 31
0.0
  0
LINE
  5
2A3D
330
1E
100
AcDbEntity
  8
OILES
100
AcDbLine
 10
3863.585736800302
 20
532.9938551392374
 30
0.0
 11
3863.585736800302
 21
356.9938701392374
 31
0.0
  0
LINE
  5
2A45
330
1E
100
AcDbEntity
  8
OILES
100
AcDbLine
 10
3940.985700800302
 20
524.9938551392374
 30
0.0
 11
3873.585736800302
 21
524.9938551392374
 31
0.0
  0
LINE
  5
2A46
330
1E
100
AcDbEntity
  8
OILES
100
AcDbLine
 10
3940.985700800302
 20
364.9938701392374
 30
0.0
 11
3873.585736800302
 21
364.9938701392374
 31
0.0
  0
ARC
  5
2A5E
330
1E
100
AcDbEntity
  8
OILES
100
AcDbCircle
 10
3902.953809800301
 20
479.8237181392373
 30
0.0
 40
10.585524
100
AcDbArc
 50
0.8839189999990495
 51
168.6577699999979
  0
LINE
  5
2A66
330
1E
100
AcDbEntity
  8
OILES
100
AcDbLine
 10
3362.276657652105
 20
534.9938551392374
 30
0.0
 11
3362.276657652105
 21
354.9938701392373
 31
0.0
  0
LINE
  5
2A6F
330
1E
100
AcDbEntity
  8
OILES
100
AcDbLine
 10
3742.276642652105
 20
534.9938551392374
 30
0.0
 11
3742.276642652105
 21
354.9938701392373
 31
0.0
  0
CIRCLE
  5
2A87
330
1E
100
AcDbEntity
  8
OILES
  6
DASHED
 48
0.5
100
AcDbCircle
 10
3717.276642652105
 20
499.9938551392373
 30
0.0
 40
3.5
  0
LINE
  5
2A91
330
1E
100
AcDbEntity
  8
OILES
100
AcDbLine
 10
3873.585736800302
 20
534.9938551392374
 30
0.0
 11
3873.585736800302
 21
354.9938701392373
 31
0.0
  0
LINE
  5
2A9B
330
1E
100
AcDbEntity
  8
OILES
100
AcDbLine
 10
3742.276642652105
 20
534.9938551392374
 30
0.0
 11
3362.276657652105
 21
534.9938551392374
 31
0.0
  0
LINE
  5
2A9C
330
1E
100
AcDbEntity
  8
OILES
100
AcDbLine
 10
3742.276642652105
 20
354.9938701392373
 30
0.0
 11
3362.276657652105
 21
354.9938701392373
 31
0.0
  0
LINE
  5
2AA0
330
1E
100
AcDbEntity
  8
OILES
100
AcDbLine
 10
3862.585736800302
 20
489.9938551392374
 30
0.0
 11
3862.585736800302
 21
481.9938551392373
 31
0.0
  0
LINE
  5
2AA1
330
1E
100
AcDbEntity
  8
OILES
100
AcDbLine
 10
3863.585736800302
 20
481.9938551392373
 30
0.0
 11
3862.585736800302
 21
481.9938551392373
 31
0.0
  0
LINE
  5
2AA2
330
1E
100
AcDbEntity
  8
OILES
100
AcDbLine
 10
3863.585736800302
 20
489.9938551392374
 30
0.0
 11
3862.585736800302
 21
489.9938551392374
 31
0.0
  0
LINE
  5
2AA3
330
1E
100
AcDbEntity
  8
OILES
100
AcDbLine
 10
3863.585736800302
 20
532.9938551392374
 30
0.0
 11
3865.585736800302
 21
534.9938551392374
 31
0.0
  0
LINE
  5
2AA4
330
1E
100
AcDbEntity
  8
OILES
100
AcDbLine
 10
3865.585736800302
 20
354.9938701392373
 30
0.0
 11
3863.585736800302
 21
356.9938701392374
 31
0.0
  0
LINE
  5
2AA5
330
1E
100
AcDbEntity
  8
OILES
100
AcDbLine
 10
3873.585736800302
 20
534.9938551392374
 30
0.0
 11
3865.585736800302
 21
534.9938551392374
 31
0.0
  0
LINE
  5
2AA6
330
1E
100
AcDbEntity
  8
OILES
100
AcDbLine
 10
3873.585736800302
 20
354.9938701392373
 30
0.0
 11
3865.585736800302
 21
354.9938701392373
 31
0.0
  0
LINE
  5
2AA9
330
1E
100
AcDbEntity
  8
OILES
100
AcDbLine
 10
3861.585736800302
 20
450.4938701392374
 30
0.0
 11
3861.585736800302
 21
441.4938701392373
 31
0.0
  0
LINE
  5
2AAA
330
1E
100
AcDbEntity
  8
OILES
100
AcDbLine
 10
3861.585736800302
 20
430.4938701392374
 30
0.0
 11
3861.585736800302
 21
421.4938701392374
 31
0.0
  0
LINE
  5
2AAB
330
1E
100
AcDbEntity
  8
OILES
100
AcDbLine
 10
3861.585736800302
 20
410.4938701392374
 30
0.0
 11
3861.585736800302
 21
401.4938701392373
 31
0.0
  0
LINE
  5
2AAC
330
1E
100
AcDbEntity
  8
OILES
100
AcDbLine
 10
3863.585736800302
 20
450.4938701392374
 30
0.0
 11
3861.585736800302
 21
450.4938701392374
 31
0.0
  0
LINE
  5
2AAD
330
1E
100
AcDbEntity
  8
OILES
100
AcDbLine
 10
3863.585736800302
 20
441.4938701392373
 30
0.0
 11
3861.585736800302
 21
441.4938701392373
 31
0.0
  0
LINE
  5
2AAE
330
1E
100
AcDbEntity
  8
OILES
100
AcDbLine
 10
3863.585736800302
 20
430.4938701392374
 30
0.0
 11
3861.585736800302
 21
430.4938701392374
 31
0.0
  0
LINE
  5
2AAF
330
1E
100
AcDbEntity
  8
OILES
100
AcDbLine
 10
3863.585736800302
 20
421.4938701392374
 30
0.0
 11
3861.585736800302
 21
421.4938701392374
 31
0.0
  0
LINE
  5
2AB0
330
1E
100
AcDbEntity
  8
OILES
100
AcDbLine
 10
3863.585736800302
 20
410.4938701392374
 30
0.0
 11
3861.585736800302
 21
410.4938701392374
 31
0.0
  0
LINE
  5
2AB1
330
1E
100
AcDbEntity
  8
OILES
100
AcDbLine
 10
3863.585736800302
 20
401.4938701392373
 30
0.0
 11
3861.585736800302
 21
401.4938701392373
 31
0.0
  0
ARC
  5
2ABD
330
1E
100
AcDbEntity
  8
OILES
100
AcDbCircle
 10
3892.699792800302
 20
479.9094481392374
 30
0.0
 40
2.0
100
AcDbArc
 50
93.57608099999623
 51
266.6284110000006
  0
ARC
  5
2ABE
330
1E
100
AcDbEntity
  8
OILES
100
AcDbCircle
 10
3902.988965800302
 20
479.9518311392374
 30
0.0
 40
10.542664
100
AcDbArc
 50
191.1211170000007
 51
0.19122799999858
  0
ARC
  5
2ABF
330
1E
100
AcDbEntity
  8
OILES
100
AcDbCircle
 10
3892.827955800302
 20
409.9116051392373
 30
0.0
 40
2.0
100
AcDbArc
 50
93.57698099999755
 51
266.6275640000079
  0
ARC
  5
2AC0
330
1E
100
AcDbEntity
  8
OILES
100
AcDbCircle
 10
3902.950574800303
 20
409.8257421392373
 30
0.0
 40
10.585524
100
AcDbArc
 50
0.8838369999987301
 51
168.6577379999989
  0
ARC
  5
2AC1
330
1E
100
AcDbEntity
  8
OILES
100
AcDbCircle
 10
3902.985730800303
 20
409.9538701392373
 30
0.0
 40
10.542664
100
AcDbArc
 50
191.1212299999985
 51
0.1910629999984785
  0
LINE
  5
2ACE
330
1E
100
AcDbEntity
  8
OILES
100
AcDbLine
 10
3362.276657652105
 20
354.9938701392373
 30
0.0
 11
3367.776657652105
 21
360.4938701392374
 31
0.0
  0
LINE
  5
2ACF
330
1E
100
AcDbEntity
  8
OILES
100
AcDbLine
 10
3367.776657652105
 20
529.4938551392374
 30
0.0
 11
3362.276657652105
 21
534.9938551392374
 31
0.0
  0
LINE
  5
2AD0
330
1E
100
AcDbEntity
  8
OILES
100
AcDbLine
 10
3364.276657652105
 20
532.9938551392374
 30
0.0
 11
3364.276657652105
 21
356.9938701392374
 31
0.0
  0
LINE
  5
2AD1
330
1E
100
AcDbEntity
  8
OILES
100
AcDbLine
 10
3366.776657652105
 20
530.4938551392374
 30
0.0
 11
3366.776657652105
 21
359.4938701392373
 31
0.0
  0
LINE
  5
2AD2
330
1E
100
AcDbEntity
  8
OILES
100
AcDbLine
 10
3367.776657652105
 20
529.4938551392374
 30
0.0
 11
3367.776657652105
 21
360.4938701392374
 31
0.0
  0
ARC
  5
2AD3
330
1E
100
AcDbEntity
  8
OILES
100
AcDbCircle
 10
3383.576661652105
 20
443.6938671392373
 30
0.0
 40
0.8
100
AcDbArc
 50
90.0
 51
180.0
  0
LINE
  5
2AD4
330
1E
100
AcDbEntity
  8
OILES
100
AcDbLine
 10
3382.776657652105
 20
443.6938671392373
 30
0.0
 11
3382.776657652105
 21
442.9938701392374
 31
0.0
  0
LINE
  5
2AD5
330
1E
100
AcDbEntity
  8
OILES
100
AcDbLine
 10
3382.776657652105
 20
442.9938701392374
 30
0.0
 11
3381.776657652105
 21
442.9938701392374
 31
0.0
  0
LINE
  5
2AD6
330
1E
100
AcDbEntity
  8
OILES
100
AcDbLine
 10
3381.776657652105
 20
443.6938671392373
 30
0.0
 11
3381.776657652105
 21
442.9938701392374
 31
0.0
  0
ARC
  5
2AD7
330
1E
100
AcDbEntity
  8
OILES
100
AcDbCircle
 10
3380.976654652105
 20
443.6938671392373
 30
0.0
 40
0.8
100
AcDbArc
 50
0.0
 51
90.0
  0
LINE
  5
2AD8
330
1E
100
AcDbEntity
  8
OILES
100
AcDbLine
 10
3380.976654652105
 20
444.4938701392374
 30
0.0
 11
3380.276657652105
 21
444.4938701392374
 31
0.0
  0
LINE
  5
2AD9
330
1E
100
AcDbEntity
  8
OILES
100
AcDbLine
 10
3380.276657652105
 20
445.4938701392373
 30
0.0
 11
3380.276657652105
 21
444.4938701392374
 31
0.0
  0
LINE
  5
2ADA
330
1E
100
AcDbEntity
  8
OILES
100
AcDbLine
 10
3380.976654652105
 20
445.4938701392373
 30
0.0
 11
3380.276657652105
 21
445.4938701392373
 31
0.0
  0
ARC
  5
2ADB
330
1E
100
AcDbEntity
  8
OILES
100
AcDbCircle
 10
3380.976654652105
 20
446.2938731392373
 30
0.0
 40
0.8
100
AcDbArc
 50
270.0
 51
0.0
  0
LINE
  5
2ADC
330
1E
100
AcDbEntity
  8
OILES
100
AcDbLine
 10
3381.776657652105
 20
446.9938701392374
 30
0.0
 11
3381.776657652105
 21
446.2938731392373
 31
0.0
  0
LINE
  5
2ADD
330
1E
100
AcDbEntity
  8
OILES
100
AcDbLine
 10
3382.776657652105
 20
446.9938701392374
 30
0.0
 11
3381.776657652105
 21
446.9938701392374
 31
0.0
  0
LINE
  5
2ADE
330
1E
100
AcDbEntity
  8
OILES
100
AcDbLine
 10
3382.776657652105
 20
446.9938701392374
 30
0.0
 11
3382.776657652105
 21
446.2938731392373
 31
0.0
  0
ARC
  5
2ADF
330
1E
100
AcDbEntity
  8
OILES
100
AcDbCircle
 10
3383.576661652105
 20
446.2938731392373
 30
0.0
 40
0.8
100
AcDbArc
 50
180.0
 51
270.0
  0
LINE
  5
2AE0
330
1E
100
AcDbEntity
  8
OILES
100
AcDbLine
 10
3384.276657652105
 20
445.4938701392373
 30
0.0
 11
3383.576661652105
 21
445.4938701392373
 31
0.0
  0
LINE
  5
2AE1
330
1E
100
AcDbEntity
  8
OILES
100
AcDbLine
 10
3384.276657652105
 20
445.4938701392373
 30
0.0
 11
3384.276657652105
 21
444.4938701392374
 31
0.0
  0
LINE
  5
2AE2
330
1E
100
AcDbEntity
  8
OILES
100
AcDbLine
 10
3384.276657652105
 20
444.4938701392374
 30
0.0
 11
3383.576661652105
 21
444.4938701392374
 31
0.0
  0
LINE
  5
2AE3
330
1E
100
AcDbEntity
  8
OILES
100
AcDbLine
 10
3411.776657652105
 20
482.9938551392372
 30
0.0
 11
3405.276657652105
 21
482.9938551392372
 31
0.0
  0
LINE
  5
2AE4
330
1E
100
AcDbEntity
  8
OILES
100
AcDbLine
 10
3411.776657652105
 20
488.9938551392374
 30
0.0
 11
3405.276657652105
 21
488.9938551392374
 31
0.0
  0
LINE
  5
2AE5
330
1E
100
AcDbEntity
  8
OILES
100
AcDbLine
 10
3405.276657652105
 20
488.9938551392374
 30
0.0
 11
3405.276657652105
 21
482.9938551392372
 31
0.0
  0
LINE
  5
2AE6
330
1E
100
AcDbEntity
  8
OILES
100
AcDbLine
 10
3411.776657652105
 20
488.9938551392374
 30
0.0
 11
3411.776657652105
 21
482.9938551392372
 31
0.0
  0
LINE
  5
2AE7
330
1E
100
AcDbEntity
  8
OILES
100
AcDbLine
 10
3412.776657652105
 20
488.9938551392374
 30
0.0
 11
3412.776657652105
 21
482.9938551392372
 31
0.0
  0
LINE
  5
2AE8
330
1E
100
AcDbEntity
  8
OILES
100
AcDbLine
 10
3419.276657652105
 20
488.9938551392374
 30
0.0
 11
3419.276657652105
 21
482.9938551392372
 31
0.0
  0
LINE
  5
2AE9
330
1E
100
AcDbEntity
  8
OILES
100
AcDbLine
 10
3419.276657652105
 20
482.9938551392372
 30
0.0
 11
3412.776657652105
 21
482.9938551392372
 31
0.0
  0
LINE
  5
2AEA
330
1E
100
AcDbEntity
  8
OILES
100
AcDbLine
 10
3419.276657652105
 20
488.9938551392374
 30
0.0
 11
3412.776657652105
 21
488.9938551392374
 31
0.0
  0
LINE
  5
2AEB
330
1E
100
AcDbEntity
  8
OILES
100
AcDbLine
 10
3420.776657652105
 20
481.9938551392373
 30
0.0
 11
3403.776657652105
 21
481.9938551392373
 31
0.0
  0
LINE
  5
2AEC
330
1E
100
AcDbEntity
  8
OILES
100
AcDbLine
 10
3420.776657652105
 20
489.9938551392374
 30
0.0
 11
3403.776657652105
 21
489.9938551392374
 31
0.0
  0
LINE
  5
2AED
330
1E
100
AcDbEntity
  8
OILES
100
AcDbLine
 10
3420.776657652105
 20
489.9938551392374
 30
0.0
 11
3420.776657652105
 21
481.9938551392373
 31
0.0
  0
LINE
  5
2AEE
330
1E
100
AcDbEntity
  8
OILES
100
AcDbLine
 10
3403.776657652105
 20
489.9938551392374
 30
0.0
 11
3403.776657652105
 21
481.9938551392373
 31
0.0
  0
LINE
  5
2AEF
330
1E
100
AcDbEntity
  8
OILES
100
AcDbLine
 10
3416.776657652105
 20
401.4938701392373
 30
0.0
 11
3407.776657652105
 21
401.4938701392373
 31
0.0
  0
LINE
  5
2AF0
330
1E
100
AcDbEntity
  8
OILES
100
AcDbLine
 10
3416.776657652105
 20
410.4938701392374
 30
0.0
 11
3416.776657652105
 21
401.4938701392373
 31
0.0
  0
LINE
  5
2AF1
330
1E
100
AcDbEntity
  8
OILES
100
AcDbLine
 10
3416.776657652105
 20
410.4938701392374
 30
0.0
 11
3407.776657652105
 21
410.4938701392374
 31
0.0
  0
LINE
  5
2AF2
330
1E
100
AcDbEntity
  8
OILES
100
AcDbLine
 10
3407.776657652105
 20
410.4938701392374
 30
0.0
 11
3407.776657652105
 21
401.4938701392373
 31
0.0
  0
LINE
  5
2AF3
330
1E
100
AcDbEntity
  8
OILES
100
AcDbLine
 10
3407.776657652105
 20
430.4938701392374
 30
0.0
 11
3407.776657652105
 21
421.4938701392374
 31
0.0
  0
LINE
  5
2AF4
330
1E
100
AcDbEntity
  8
OILES
100
AcDbLine
 10
3416.776657652105
 20
421.4938701392374
 30
0.0
 11
3407.776657652105
 21
421.4938701392374
 31
0.0
  0
LINE
  5
2AF5
330
1E
100
AcDbEntity
  8
OILES
100
AcDbLine
 10
3416.776657652105
 20
430.4938701392374
 30
0.0
 11
3416.776657652105
 21
421.4938701392374
 31
0.0
  0
LINE
  5
2AF6
330
1E
100
AcDbEntity
  8
OILES
100
AcDbLine
 10
3416.776657652105
 20
430.4938701392374
 30
0.0
 11
3407.776657652105
 21
430.4938701392374
 31
0.0
  0
LINE
  5
2AF7
330
1E
100
AcDbEntity
  8
OILES
100
AcDbLine
 10
3416.776657652105
 20
441.4938701392373
 30
0.0
 11
3407.776657652105
 21
441.4938701392373
 31
0.0
  0
LINE
  5
2AF8
330
1E
100
AcDbEntity
  8
OILES
100
AcDbLine
 10
3416.776657652105
 20
450.4938701392374
 30
0.0
 11
3416.776657652105
 21
441.4938701392373
 31
0.0
  0
LINE
  5
2AF9
330
1E
100
AcDbEntity
  8
OILES
100
AcDbLine
 10
3416.776657652105
 20
450.4938701392374
 30
0.0
 11
3407.776657652105
 21
450.4938701392374
 31
0.0
  0
LINE
  5
2AFA
330
1E
100
AcDbEntity
  8
OILES
100
AcDbLine
 10
3407.776657652105
 20
450.4938701392374
 30
0.0
 11
3407.776657652105
 21
441.4938701392373
 31
0.0
  0
LINE
  5
2AFB
330
1E
100
AcDbEntity
  8
OILES
100
AcDbLine
 10
3551.776657652105
 20
482.9938551392372
 30
0.0
 11
3545.276657652105
 21
482.9938551392372
 31
0.0
  0
LINE
  5
2AFC
330
1E
100
AcDbEntity
  8
OILES
100
AcDbLine
 10
3551.776657652105
 20
488.9938551392374
 30
0.0
 11
3545.276657652105
 21
488.9938551392374
 31
0.0
  0
LINE
  5
2AFD
330
1E
100
AcDbEntity
  8
OILES
100
AcDbLine
 10
3545.276657652105
 20
488.9938551392374
 30
0.0
 11
3545.276657652105
 21
482.9938551392372
 31
0.0
  0
LINE
  5
2AFE
330
1E
100
AcDbEntity
  8
OILES
100
AcDbLine
 10
3551.776657652105
 20
488.9938551392374
 30
0.0
 11
3551.776657652105
 21
482.9938551392372
 31
0.0
  0
LINE
  5
2AFF
330
1E
100
AcDbEntity
  8
OILES
100
AcDbLine
 10
3552.776657652105
 20
488.9938551392374
 30
0.0
 11
3552.776657652105
 21
482.9938551392372
 31
0.0
  0
LINE
  5
2B00
330
1E
100
AcDbEntity
  8
OILES
100
AcDbLine
 10
3559.276657652105
 20
488.9938551392374
 30
0.0
 11
3559.276657652105
 21
482.9938551392372
 31
0.0
  0
LINE
  5
2B01
330
1E
100
AcDbEntity
  8
OILES
100
AcDbLine
 10
3559.276657652105
 20
482.9938551392372
 30
0.0
 11
3552.776657652105
 21
482.9938551392372
 31
0.0
  0
LINE
  5
2B02
330
1E
100
AcDbEntity
  8
OILES
100
AcDbLine
 10
3559.276657652105
 20
488.9938551392374
 30
0.0
 11
3552.776657652105
 21
488.9938551392374
 31
0.0
  0
LINE
  5
2B03
330
1E
100
AcDbEntity
  8
OILES
100
AcDbLine
 10
3560.776657652105
 20
481.9938551392373
 30
0.0
 11
3543.776657652105
 21
481.9938551392373
 31
0.0
  0
LINE
  5
2B04
330
1E
100
AcDbEntity
  8
OILES
100
AcDbLine
 10
3560.776657652105
 20
489.9938551392374
 30
0.0
 11
3543.776657652105
 21
489.9938551392374
 31
0.0
  0
LINE
  5
2B05
330
1E
100
AcDbEntity
  8
OILES
100
AcDbLine
 10
3560.776657652105
 20
489.9938551392374
 30
0.0
 11
3560.776657652105
 21
481.9938551392373
 31
0.0
  0
LINE
  5
2B06
330
1E
100
AcDbEntity
  8
OILES
100
AcDbLine
 10
3543.776657652105
 20
489.9938551392374
 30
0.0
 11
3543.776657652105
 21
481.9938551392373
 31
0.0
  0
LINE
  5
2B07
330
1E
100
AcDbEntity
  8
OILES
100
AcDbLine
 10
3556.776657652105
 20
401.4938701392373
 30
0.0
 11
3547.776657652105
 21
401.4938701392373
 31
0.0
  0
LINE
  5
2B08
330
1E
100
AcDbEntity
  8
OILES
100
AcDbLine
 10
3556.776657652105
 20
410.4938701392374
 30
0.0
 11
3556.776657652105
 21
401.4938701392373
 31
0.0
  0
LINE
  5
2B09
330
1E
100
AcDbEntity
  8
OILES
100
AcDbLine
 10
3556.776657652105
 20
410.4938701392374
 30
0.0
 11
3547.776657652105
 21
410.4938701392374
 31
0.0
  0
LINE
  5
2B0A
330
1E
100
AcDbEntity
  8
OILES
100
AcDbLine
 10
3547.776657652105
 20
410.4938701392374
 30
0.0
 11
3547.776657652105
 21
401.4938701392373
 31
0.0
  0
LINE
  5
2B0B
330
1E
100
AcDbEntity
  8
OILES
100
AcDbLine
 10
3547.776657652105
 20
430.4938701392374
 30
0.0
 11
3547.776657652105
 21
421.4938701392374
 31
0.0
  0
LINE
  5
2B0C
330
1E
100
AcDbEntity
  8
OILES
100
AcDbLine
 10
3556.776657652105
 20
421.4938701392374
 30
0.0
 11
3547.776657652105
 21
421.4938701392374
 31
0.0
  0
LINE
  5
2B0D
330
1E
100
AcDbEntity
  8
OILES
100
AcDbLine
 10
3556.776657652105
 20
430.4938701392374
 30
0.0
 11
3556.776657652105
 21
421.4938701392374
 31
0.0
  0
LINE
  5
2B0E
330
1E
100
AcDbEntity
  8
OILES
100
AcDbLine
 10
3556.776657652105
 20
430.4938701392374
 30
0.0
 11
3547.776657652105
 21
430.4938701392374
 31
0.0
  0
LINE
  5
2B0F
330
1E
100
AcDbEntity
  8
OILES
100
AcDbLine
 10
3556.776657652105
 20
441.4938701392373
 30
0.0
 11
3547.776657652105
 21
441.4938701392373
 31
0.0
  0
LINE
  5
2B10
330
1E
100
AcDbEntity
  8
OILES
100
AcDbLine
 10
3556.776657652105
 20
450.4938701392374
 30
0.0
 11
3556.776657652105
 21
441.4938701392373
 31
0.0
  0
LINE
  5
2B11
330
1E
100
AcDbEntity
  8
OILES
100
AcDbLine
 10
3556.776657652105
 20
450.4938701392374
 30
0.0
 11
3547.776657652105
 21
450.4938701392374
 31
0.0
  0
LINE
  5
2B12
330
1E
100
AcDbEntity
  8
OILES
100
AcDbLine
 10
3547.776657652105
 20
450.4938701392374
 30
0.0
 11
3547.776657652105
 21
441.4938701392373
 31
0.0
  0
LINE
  5
2B1B
330
1E
100
AcDbEntity
  8
OILES
  6
CENTER
 62
     1
 48
0.5
100
AcDbLine
 10
3393.776657652105
 20
389.9938701392374
 30
0.0
 11
3380.776657652105
 21
389.9938701392374
 31
0.0
  0
LINE
  5
2B1D
330
1E
100
AcDbEntity
  8
OILES
  6
CENTER
 62
     1
 48
0.5
100
AcDbLine
 10
3393.776657652105
 20
499.9938551392373
 30
0.0
 11
3380.776657652105
 21
499.9938551392373
 31
0.0
  0
LINE
  5
2B1E
330
1E
100
AcDbEntity
  8
OILES
  6
CENTER
 62
     1
 48
0.5
100
AcDbLine
 10
3387.276657652105
 20
506.4938551392374
 30
0.0
 11
3387.276657652105
 21
493.4938551392374
 31
0.0
  0
LINE
  5
2B1F
330
1E
100
AcDbEntity
  8
OILES
  6
CENTER
 62
     1
 48
0.5
100
AcDbLine
 10
3387.276657652105
 20
395.9938701392374
 30
0.0
 11
3387.276657652105
 21
383.4938701392374
 31
0.0
  0
LINE
  5
2B20
330
1E
100
AcDbEntity
  8
OILES
100
AcDbLine
 10
3742.276642652105
 20
354.9938701392373
 30
0.0
 11
3736.776642652105
 21
360.4938701392374
 31
0.0
  0
LINE
  5
2B21
330
1E
100
AcDbEntity
  8
OILES
100
AcDbLine
 10
3742.276642652105
 20
534.9938551392374
 30
0.0
 11
3736.776642652105
 21
529.4938551392374
 31
0.0
  0
LINE
  5
2B22
330
1E
100
AcDbEntity
  8
OILES
100
AcDbLine
 10
3740.276642652105
 20
532.9938551392374
 30
0.0
 11
3740.276642652105
 21
356.9938701392374
 31
0.0
  0
LINE
  5
2B23
330
1E
100
AcDbEntity
  8
OILES
100
AcDbLine
 10
3737.776642652105
 20
530.4938551392374
 30
0.0
 11
3737.776642652105
 21
359.4938701392373
 31
0.0
  0
LINE
  5
2B25
330
1E
100
AcDbEntity
  8
OILES
100
AcDbLine
 10
3736.776642652105
 20
529.4938551392374
 30
0.0
 11
3736.776642652105
 21
360.4938701392374
 31
0.0
  0
LINE
  5
2B26
330
1E
100
AcDbEntity
  8
OILES
100
AcDbLine
 10
3691.776642652105
 20
482.9938551392372
 30
0.0
 11
3685.276642652105
 21
482.9938551392372
 31
0.0
  0
LINE
  5
2B27
330
1E
100
AcDbEntity
  8
OILES
100
AcDbLine
 10
3691.776642652105
 20
488.9938551392374
 30
0.0
 11
3685.276642652105
 21
488.9938551392374
 31
0.0
  0
LINE
  5
2B28
330
1E
100
AcDbEntity
  8
OILES
100
AcDbLine
 10
3685.276642652105
 20
488.9938551392374
 30
0.0
 11
3685.276642652105
 21
482.9938551392372
 31
0.0
  0
LINE
  5
2B29
330
1E
100
AcDbEntity
  8
OILES
100
AcDbLine
 10
3691.776642652105
 20
488.9938551392374
 30
0.0
 11
3691.776642652105
 21
482.9938551392372
 31
0.0
  0
LINE
  5
2B2A
330
1E
100
AcDbEntity
  8
OILES
100
AcDbLine
 10
3692.776642652105
 20
488.9938551392374
 30
0.0
 11
3692.776642652105
 21
482.9938551392372
 31
0.0
  0
LINE
  5
2B2B
330
1E
100
AcDbEntity
  8
OILES
100
AcDbLine
 10
3699.276642652105
 20
488.9938551392374
 30
0.0
 11
3699.276642652105
 21
482.9938551392372
 31
0.0
  0
LINE
  5
2B2C
330
1E
100
AcDbEntity
  8
OILES
100
AcDbLine
 10
3699.276642652105
 20
482.9938551392372
 30
0.0
 11
3692.776642652105
 21
482.9938551392372
 31
0.0
  0
LINE
  5
2B2D
330
1E
100
AcDbEntity
  8
OILES
100
AcDbLine
 10
3699.276642652105
 20
488.9938551392374
 30
0.0
 11
3692.776642652105
 21
488.9938551392374
 31
0.0
  0
LINE
  5
2B2E
330
1E
100
AcDbEntity
  8
OILES
100
AcDbLine
 10
3700.776642652105
 20
481.9938551392373
 30
0.0
 11
3683.776642652105
 21
481.9938551392373
 31
0.0
  0
LINE
  5
2B2F
330
1E
100
AcDbEntity
  8
OILES
100
AcDbLine
 10
3700.776642652105
 20
489.9938551392374
 30
0.0
 11
3683.776642652105
 21
489.9938551392374
 31
0.0
  0
LINE
  5
2B30
330
1E
100
AcDbEntity
  8
OILES
100
AcDbLine
 10
3700.776642652105
 20
489.9938551392374
 30
0.0
 11
3700.776642652105
 21
481.9938551392373
 31
0.0
  0
LINE
  5
2B31
330
1E
100
AcDbEntity
  8
OILES
100
AcDbLine
 10
3683.776642652105
 20
489.9938551392374
 30
0.0
 11
3683.776642652105
 21
481.9938551392373
 31
0.0
  0
LINE
  5
2B32
330
1E
100
AcDbEntity
  8
OILES
100
AcDbLine
 10
3696.776642652105
 20
401.4938701392373
 30
0.0
 11
3687.776642652105
 21
401.4938701392373
 31
0.0
  0
LINE
  5
2B33
330
1E
100
AcDbEntity
  8
OILES
100
AcDbLine
 10
3696.776642652105
 20
410.4938701392374
 30
0.0
 11
3696.776642652105
 21
401.4938701392373
 31
0.0
  0
LINE
  5
2B34
330
1E
100
AcDbEntity
  8
OILES
100
AcDbLine
 10
3696.776642652105
 20
410.4938701392374
 30
0.0
 11
3687.776642652105
 21
410.4938701392374
 31
0.0
  0
LINE
  5
2B35
330
1E
100
AcDbEntity
  8
OILES
100
AcDbLine
 10
3687.776642652105
 20
410.4938701392374
 30
0.0
 11
3687.776642652105
 21
401.4938701392373
 31
0.0
  0
LINE
  5
2B36
330
1E
100
AcDbEntity
  8
OILES
100
AcDbLine
 10
3687.776642652105
 20
430.4938701392374
 30
0.0
 11
3687.776642652105
 21
421.4938701392374
 31
0.0
  0
LINE
  5
2B37
330
1E
100
AcDbEntity
  8
OILES
100
AcDbLine
 10
3696.776642652105
 20
421.4938701392374
 30
0.0
 11
3687.776642652105
 21
421.4938701392374
 31
0.0
  0
LINE
  5
2B38
330
1E
100
AcDbEntity
  8
OILES
100
AcDbLine
 10
3696.776642652105
 20
430.4938701392374
 30
0.0
 11
3696.776642652105
 21
421.4938701392374
 31
0.0
  0
LINE
  5
2B39
330
1E
100
AcDbEntity
  8
OILES
100
AcDbLine
 10
3696.776642652105
 20
430.4938701392374
 30
0.0
 11
3687.776642652105
 21
430.4938701392374
 31
0.0
  0
LINE
  5
2B3A
330
1E
100
AcDbEntity
  8
OILES
100
AcDbLine
 10
3696.776642652105
 20
441.4938701392373
 30
0.0
 11
3687.776642652105
 21
441.4938701392373
 31
0.0
  0
LINE
  5
2B3B
330
1E
100
AcDbEntity
  8
OILES
100
AcDbLine
 10
3696.776642652105
 20
450.4938701392374
 30
0.0
 11
3696.776642652105
 21
441.4938701392373
 31
0.0
  0
LINE
  5
2B3C
330
1E
100
AcDbEntity
  8
OILES
100
AcDbLine
 10
3696.776642652105
 20
450.4938701392374
 30
0.0
 11
3687.776642652105
 21
450.4938701392374
 31
0.0
  0
LINE
  5
2B3D
330
1E
100
AcDbEntity
  8
OILES
100
AcDbLine
 10
3687.776642652105
 20
450.4938701392374
 30
0.0
 11
3687.776642652105
 21
441.4938701392373
 31
0.0
  0
LINE
  5
2B42
330
1E
100
AcDbEntity
  8
OILES
  6
CENTER
 62
     1
 48
0.5
100
AcDbLine
 10
3717.276642652105
 20
396.4938701392373
 30
0.0
 11
3717.276642652105
 21
383.4938701392374
 31
0.0
  0
LINE
  5
2B43
330
1E
100
AcDbEntity
  8
OILES
  6
CENTER
 62
     1
 48
0.5
100
AcDbLine
 10
3723.776642652105
 20
389.9938701392374
 30
0.0
 11
3710.776642652105
 21
389.9938701392374
 31
0.0
  0
LINE
  5
2B44
330
1E
100
AcDbEntity
  8
OILES
  6
CENTER
 62
     1
 48
0.5
100
AcDbLine
 10
3717.276642652105
 20
506.4938551392374
 30
0.0
 11
3717.276642652105
 21
493.4938551392374
 31
0.0
  0
LINE
  5
2B45
330
1E
100
AcDbEntity
  8
OILES
  6
CENTER
 62
     1
 48
0.5
100
AcDbLine
 10
3723.776642652105
 20
499.9938551392373
 30
0.0
 11
3710.776642652105
 21
499.9938551392373
 31
0.0
  0
ARC
  5
2B46
330
1E
100
AcDbEntity
  8
OILES
100
AcDbCircle
 10
3723.576661652105
 20
443.6938671392373
 30
0.0
 40
0.8
100
AcDbArc
 50
90.0
 51
180.0
  0
LINE
  5
2B47
330
1E
100
AcDbEntity
  8
OILES
100
AcDbLine
 10
3722.776642652105
 20
443.6938671392373
 30
0.0
 11
3722.776642652105
 21
442.9938701392374
 31
0.0
  0
LINE
  5
2B48
330
1E
100
AcDbEntity
  8
OILES
100
AcDbLine
 10
3722.776642652105
 20
442.9938701392374
 30
0.0
 11
3721.776642652105
 21
442.9938701392374
 31
0.0
  0
LINE
  5
2B49
330
1E
100
AcDbEntity
  8
OILES
100
AcDbLine
 10
3721.776642652105
 20
443.6938671392373
 30
0.0
 11
3721.776642652105
 21
442.9938701392374
 31
0.0
  0
ARC
  5
2B4A
330
1E
100
AcDbEntity
  8
OILES
100
AcDbCircle
 10
3720.976654652105
 20
443.6938671392373
 30
0.0
 40
0.8
100
AcDbArc
 50
0.0
 51
90.0
  0
LINE
  5
2B4B
330
1E
100
AcDbEntity
  8
OILES
100
AcDbLine
 10
3720.976654652105
 20
444.4938701392374
 30
0.0
 11
3720.276642652105
 21
444.4938701392374
 31
0.0
  0
LINE
  5
2B4C
330
1E
100
AcDbEntity
  8
OILES
100
AcDbLine
 10
3720.276642652105
 20
445.4938701392373
 30
0.0
 11
3720.276642652105
 21
444.4938701392374
 31
0.0
  0
LINE
  5
2B4D
330
1E
100
AcDbEntity
  8
OILES
100
AcDbLine
 10
3720.976654652105
 20
445.4938701392373
 30
0.0
 11
3720.276642652105
 21
445.4938701392373
 31
0.0
  0
ARC
  5
2B4E
330
1E
100
AcDbEntity
  8
OILES
100
AcDbCircle
 10
3720.976654652105
 20
446.2938731392373
 30
0.0
 40
0.8
100
AcDbArc
 50
270.0
 51
0.0
  0
LINE
  5
2B4F
330
1E
100
AcDbEntity
  8
OILES
100
AcDbLine
 10
3721.776642652105
 20
446.9938701392374
 30
0.0
 11
3721.776642652105
 21
446.2938731392373
 31
0.0
  0
LINE
  5
2B50
330
1E
100
AcDbEntity
  8
OILES
100
AcDbLine
 10
3722.776642652105
 20
446.9938701392374
 30
0.0
 11
3721.776642652105
 21
446.9938701392374
 31
0.0
  0
LINE
  5
2B51
330
1E
100
AcDbEntity
  8
OILES
100
AcDbLine
 10
3722.776642652105
 20
446.9938701392374
 30
0.0
 11
3722.776642652105
 21
446.2938731392373
 31
0.0
  0
ARC
  5
2B52
330
1E
100
AcDbEntity
  8
OILES
100
AcDbCircle
 10
3723.576661652105
 20
446.2938731392373
 30
0.0
 40
0.8
100
AcDbArc
 50
180.0
 51
270.0
  0
LINE
  5
2B53
330
1E
100
AcDbEntity
  8
OILES
100
AcDbLine
 10
3724.276642652105
 20
445.4938701392373
 30
0.0
 11
3723.576661652105
 21
445.4938701392373
 31
0.0
  0
LINE
  5
2B54
330
1E
100
AcDbEntity
  8
OILES
100
AcDbLine
 10
3724.276642652105
 20
445.4938701392373
 30
0.0
 11
3724.276642652105
 21
444.4938701392374
 31
0.0
  0
LINE
  5
2B55
330
1E
100
AcDbEntity
  8
OILES
100
AcDbLine
 10
3724.276642652105
 20
444.4938701392374
 30
0.0
 11
3723.576661652105
 21
444.4938701392374
 31
0.0
  0
LINE
  5
2B56
330
1E
100
AcDbEntity
  8
OILES
100
AcDbLine
 10
3621.776642652104
 20
482.9938551392372
 30
0.0
 11
3615.276642652105
 21
482.9938551392372
 31
0.0
  0
LINE
  5
2B57
330
1E
100
AcDbEntity
  8
OILES
100
AcDbLine
 10
3621.776642652104
 20
488.9938551392374
 30
0.0
 11
3615.276642652105
 21
488.9938551392374
 31
0.0
  0
LINE
  5
2B58
330
1E
100
AcDbEntity
  8
OILES
100
AcDbLine
 10
3615.276642652105
 20
488.9938551392374
 30
0.0
 11
3615.276642652105
 21
482.9938551392372
 31
0.0
  0
LINE
  5
2B59
330
1E
100
AcDbEntity
  8
OILES
100
AcDbLine
 10
3621.776642652104
 20
488.9938551392374
 30
0.0
 11
3621.776642652104
 21
482.9938551392372
 31
0.0
  0
LINE
  5
2B5A
330
1E
100
AcDbEntity
  8
OILES
100
AcDbLine
 10
3622.776642652105
 20
488.9938551392374
 30
0.0
 11
3622.776642652105
 21
482.9938551392372
 31
0.0
  0
LINE
  5
2B5B
330
1E
100
AcDbEntity
  8
OILES
100
AcDbLine
 10
3629.276642652105
 20
488.9938551392374
 30
0.0
 11
3629.276642652105
 21
482.9938551392372
 31
0.0
  0
LINE
  5
2B5C
330
1E
100
AcDbEntity
  8
OILES
100
AcDbLine
 10
3629.276642652105
 20
482.9938551392372
 30
0.0
 11
3622.776642652105
 21
482.9938551392372
 31
0.0
  0
LINE
  5
2B5D
330
1E
100
AcDbEntity
  8
OILES
100
AcDbLine
 10
3629.276642652105
 20
488.9938551392374
 30
0.0
 11
3622.776642652105
 21
488.9938551392374
 31
0.0
  0
LINE
  5
2B5E
330
1E
100
AcDbEntity
  8
OILES
100
AcDbLine
 10
3630.776642652105
 20
481.9938551392373
 30
0.0
 11
3613.776642652105
 21
481.9938551392373
 31
0.0
  0
LINE
  5
2B5F
330
1E
100
AcDbEntity
  8
OILES
100
AcDbLine
 10
3630.776642652105
 20
489.9938551392374
 30
0.0
 11
3613.776642652105
 21
489.9938551392374
 31
0.0
  0
LINE
  5
2B60
330
1E
100
AcDbEntity
  8
OILES
100
AcDbLine
 10
3630.776642652105
 20
489.9938551392374
 30
0.0
 11
3630.776642652105
 21
481.9938551392373
 31
0.0
  0
LINE
  5
2B61
330
1E
100
AcDbEntity
  8
OILES
100
AcDbLine
 10
3613.776642652105
 20
489.9938551392374
 30
0.0
 11
3613.776642652105
 21
481.9938551392373
 31
0.0
  0
LINE
  5
2B62
330
1E
100
AcDbEntity
  8
OILES
100
AcDbLine
 10
3626.776642652105
 20
401.4938701392373
 30
0.0
 11
3617.776642652105
 21
401.4938701392373
 31
0.0
  0
LINE
  5
2B63
330
1E
100
AcDbEntity
  8
OILES
100
AcDbLine
 10
3626.776642652105
 20
410.4938701392374
 30
0.0
 11
3626.776642652105
 21
401.4938701392373
 31
0.0
  0
LINE
  5
2B64
330
1E
100
AcDbEntity
  8
OILES
100
AcDbLine
 10
3626.776642652105
 20
410.4938701392374
 30
0.0
 11
3617.776642652105
 21
410.4938701392374
 31
0.0
  0
LINE
  5
2B65
330
1E
100
AcDbEntity
  8
OILES
100
AcDbLine
 10
3617.776642652105
 20
410.4938701392374
 30
0.0
 11
3617.776642652105
 21
401.4938701392373
 31
0.0
  0
LINE
  5
2B66
330
1E
100
AcDbEntity
  8
OILES
100
AcDbLine
 10
3617.776642652105
 20
430.4938701392374
 30
0.0
 11
3617.776642652105
 21
421.4938701392374
 31
0.0
  0
LINE
  5
2B67
330
1E
100
AcDbEntity
  8
OILES
100
AcDbLine
 10
3626.776642652105
 20
421.4938701392374
 30
0.0
 11
3617.776642652105
 21
421.4938701392374
 31
0.0
  0
LINE
  5
2B68
330
1E
100
AcDbEntity
  8
OILES
100
AcDbLine
 10
3626.776642652105
 20
430.4938701392374
 30
0.0
 11
3626.776642652105
 21
421.4938701392374
 31
0.0
  0
LINE
  5
2B69
330
1E
100
AcDbEntity
  8
OILES
100
AcDbLine
 10
3626.776642652105
 20
430.4938701392374
 30
0.0
 11
3617.776642652105
 21
430.4938701392374
 31
0.0
  0
LINE
  5
2B6A
330
1E
100
AcDbEntity
  8
OILES
100
AcDbLine
 10
3626.776642652105
 20
441.4938701392373
 30
0.0
 11
3617.776642652105
 21
441.4938701392373
 31
0.0
  0
LINE
  5
2B6B
330
1E
100
AcDbEntity
  8
OILES
100
AcDbLine
 10
3626.776642652105
 20
450.4938701392374
 30
0.0
 11
3626.776642652105
 21
441.4938701392373
 31
0.0
  0
LINE
  5
2B6C
330
1E
100
AcDbEntity
  8
OILES
100
AcDbLine
 10
3626.776642652105
 20
450.4938701392374
 30
0.0
 11
3617.776642652105
 21
450.4938701392374
 31
0.0
  0
LINE
  5
2B6D
330
1E
100
AcDbEntity
  8
OILES
100
AcDbLine
 10
3617.776642652105
 20
450.4938701392374
 30
0.0
 11
3617.776642652105
 21
441.4938701392373
 31
0.0
  0
LINE
  5
2B72
330
1E
100
AcDbEntity
  8
OILES
100
AcDbLine
 10
3736.776642652105
 20
529.4938551392374
 30
0.0
 11
3367.776657652105
 21
529.4938551392374
 31
0.0
  0
LINE
  5
2B73
330
1E
100
AcDbEntity
  8
OILES
100
AcDbLine
 10
3737.776642652105
 20
530.4938551392374
 30
0.0
 11
3366.776657652105
 21
530.4938551392374
 31
0.0
  0
LINE
  5
2B74
330
1E
100
AcDbEntity
  8
OILES
100
AcDbLine
 10
3740.276642652105
 20
532.9938551392374
 30
0.0
 11
3364.276657652105
 21
532.9938551392374
 31
0.0
  0
LINE
  5
2B76
330
1E
100
AcDbEntity
  8
OILES
100
AcDbLine
 10
3740.276642652105
 20
356.9938701392374
 30
0.0
 11
3364.276657652105
 21
356.9938701392374
 31
0.0
  0
LINE
  5
2B77
330
1E
100
AcDbEntity
  8
OILES
100
AcDbLine
 10
3737.776642652105
 20
359.4938701392373
 30
0.0
 11
3366.776657652105
 21
359.4938701392373
 31
0.0
  0
LINE
  5
2B78
330
1E
100
AcDbEntity
  8
OILES
100
AcDbLine
 10
3736.776642652105
 20
360.4938701392374
 30
0.0
 11
3367.776657652105
 21
360.4938701392374
 31
0.0
  0
LINE
  5
2B7B
330
1E
100
AcDbEntity
  8
OILES
100
AcDbLine
 10
3721.011658652105
 20
371.3631031392373
 30
0.0
 11
3721.011658652105
 21
370.9591871392374
 31
0.0
  0
LINE
  5
2B7C
330
1E
100
AcDbEntity
  8
OILES
100
AcDbLine
 10
3721.011658652105
 20
372.2905931392373
 30
0.0
 11
3721.011658652105
 21
371.7527361392374
 31
0.0
  0
LINE
  5
2B7D
330
1E
100
AcDbEntity
  8
OILES
100
AcDbLine
 10
3721.110657652106
 20
371.3631031392373
 30
0.0
 11
3721.110657652106
 21
370.9591871392374
 31
0.0
  0
LINE
  5
2B7E
330
1E
100
AcDbEntity
  8
OILES
100
AcDbLine
 10
3721.110657652106
 20
372.2757921392374
 30
0.0
 11
3721.110657652106
 21
371.6613051392374
 31
0.0
  0
LINE
  5
2B7F
330
1E
100
AcDbEntity
  8
OILES
100
AcDbLine
 10
3721.209687652105
 20
371.3631031392373
 30
0.0
 11
3721.209687652105
 21
370.9591871392374
 31
0.0
  0
LINE
  5
2B80
330
1E
100
AcDbEntity
  8
OILES
100
AcDbLine
 10
3721.209687652105
 20
372.2556811392374
 30
0.0
 11
3721.209687652105
 21
371.5009351392374
 31
0.0
  0
LINE
  5
2B81
330
1E
100
AcDbEntity
  8
OILES
100
AcDbLine
 10
3720.318665652106
 20
371.3631031392373
 30
0.0
 11
3720.318665652106
 21
370.9591871392374
 31
0.0
  0
LINE
  5
2B82
330
1E
100
AcDbEntity
  8
OILES
100
AcDbLine
 10
3720.318665652106
 20
372.2890521392374
 30
0.0
 11
3720.318665652106
 21
371.7610521392373
 31
0.0
  0
LINE
  5
2B83
330
1E
100
AcDbEntity
  8
OILES
100
AcDbLine
 10
3720.219666652105
 20
371.3631031392373
 30
0.0
 11
3720.219666652105
 21
370.9591871392374
 31
0.0
  0
LINE
  5
2B84
330
1E
100
AcDbEntity
  8
OILES
100
AcDbLine
 10
3720.219666652105
 20
372.2736101392373
 30
0.0
 11
3720.219666652105
 21
371.6743971392374
 31
0.0
  0
LINE
  5
2B85
330
1E
100
AcDbEntity
  8
OILES
100
AcDbLine
 10
3720.120667652106
 20
371.3631031392373
 30
0.0
 11
3720.120667652106
 21
370.9591871392374
 31
0.0
  0
LINE
  5
2B86
330
1E
100
AcDbEntity
  8
OILES
100
AcDbLine
 10
3720.120667652106
 20
372.2528431392374
 30
0.0
 11
3720.120667652106
 21
371.5271191392373
 31
0.0
  0
LINE
  5
2B87
330
1E
100
AcDbEntity
  8
OILES
100
AcDbLine
 10
3720.417664652105
 20
371.3631031392373
 30
0.0
 11
3720.417664652105
 21
370.9591871392374
 31
0.0
  0
LINE
  5
2B88
330
1E
100
AcDbEntity
  8
OILES
100
AcDbLine
 10
3720.417664652105
 20
372.2993821392374
 30
0.0
 11
3720.417664652105
 21
371.8168071392374
 31
0.0
  0
LINE
  5
2B89
330
1E
100
AcDbEntity
  8
OILES
100
AcDbLine
 10
3720.714661652105
 20
371.3631031392373
 30
0.0
 11
3720.714661652105
 21
370.9591871392374
 31
0.0
  0
LINE
  5
2B8A
330
1E
100
AcDbEntity
  8
OILES
100
AcDbLine
 10
3720.714661652105
 20
372.3007251392373
 30
0.0
 11
3720.714661652105
 21
371.8654371392374
 31
0.0
  0
LINE
  5
2B8B
330
1E
100
AcDbEntity
  8
OILES
100
AcDbLine
 10
3720.615662652105
 20
371.3631031392373
 30
0.0
 11
3720.615662652105
 21
370.9591871392374
 31
0.0
  0
LINE
  5
2B8C
330
1E
100
AcDbEntity
  8
OILES
100
AcDbLine
 10
3720.615662652105
 20
372.3051801392373
 30
0.0
 11
3720.615662652105
 21
371.8663991392374
 31
0.0
  0
LINE
  5
2B8D
330
1E
100
AcDbEntity
  8
OILES
100
AcDbLine
 10
3720.516663652105
 20
371.3631031392373
 30
0.0
 11
3720.516663652105
 21
370.9591871392374
 31
0.0
  0
LINE
  5
2B8E
330
1E
100
AcDbEntity
  8
OILES
100
AcDbLine
 10
3720.516663652105
 20
372.3047381392374
 30
0.0
 11
3720.516663652105
 21
371.8506821392374
 31
0.0
  0
LINE
  5
2B8F
330
1E
100
AcDbEntity
  8
OILES
100
AcDbLine
 10
3720.813660652105
 20
371.3631031392373
 30
0.0
 11
3720.813660652105
 21
370.9591871392374
 31
0.0
  0
LINE
  5
2B90
330
1E
100
AcDbEntity
  8
OILES
100
AcDbLine
 10
3720.813660652105
 20
372.3050581392373
 30
0.0
 11
3720.813660652105
 21
371.8476911392373
 31
0.0
  0
LINE
  5
2B91
330
1E
100
AcDbEntity
  8
OILES
100
AcDbLine
 10
3720.912659652106
 20
371.3631031392373
 30
0.0
 11
3720.912659652106
 21
370.9591871392374
 31
0.0
  0
LINE
  5
2B92
330
1E
100
AcDbEntity
  8
OILES
100
AcDbLine
 10
3720.912659652106
 20
372.3002971392374
 30
0.0
 11
3720.912659652106
 21
371.8114971392374
 31
0.0
  0
LINE
  5
2B93
330
1E
100
AcDbEntity
  8
OILES
100
AcDbLine
 10
3720.120667652106
 20
370.7217911392373
 30
0.0
 11
3720.120667652106
 21
370.0694471392373
 31
0.0
  0
LINE
  5
2B94
330
1E
100
AcDbEntity
  8
OILES
100
AcDbLine
 10
3720.417664652105
 20
370.5127761392374
 30
0.0
 11
3720.417664652105
 21
370.0229081392373
 31
0.0
  0
LINE
  5
2B95
330
1E
100
AcDbEntity
  8
OILES
100
AcDbLine
 10
3720.318665652106
 20
370.5577281392374
 30
0.0
 11
3720.318665652106
 21
370.0332381392374
 31
0.0
  0
LINE
  5
2B96
330
1E
100
AcDbEntity
  8
OILES
100
AcDbLine
 10
3720.219666652105
 20
370.6241961392374
 30
0.0
 11
3720.219666652105
 21
370.0486801392374
 31
0.0
  0
LINE
  5
2B97
330
1E
100
AcDbEntity
  8
OILES
100
AcDbLine
 10
3720.714661652105
 20
370.4741711392373
 30
0.0
 11
3720.714661652105
 21
370.0167131392374
 31
0.0
  0
LINE
  5
2B98
330
1E
100
AcDbEntity
  8
OILES
100
AcDbLine
 10
3720.615662652105
 20
370.4724471392374
 30
0.0
 11
3720.615662652105
 21
370.0167131392374
 31
0.0
  0
LINE
  5
2B99
330
1E
100
AcDbEntity
  8
OILES
100
AcDbLine
 10
3720.516663652105
 20
370.4850361392374
 30
0.0
 11
3720.516663652105
 21
370.0167131392374
 31
0.0
  0
LINE
  5
2B9A
330
1E
100
AcDbEntity
  8
OILES
100
AcDbLine
 10
3720.813660652105
 20
370.4903151392374
 30
0.0
 11
3720.813660652105
 21
370.0167131392374
 31
0.0
  0
LINE
  5
2B9B
330
1E
100
AcDbEntity
  8
OILES
100
AcDbLine
 10
3720.912659652106
 20
370.6225941392374
 30
0.0
 11
3720.912659652106
 21
370.0167131392374
 31
0.0
  0
LINE
  5
2B9C
330
1E
100
AcDbEntity
  8
OILES
100
AcDbLine
 10
3722.001679652105
 20
370.6225941392374
 30
0.0
 11
3722.001679652105
 21
370.3525131392374
 31
0.0
  0
LINE
  5
2B9D
330
1E
100
AcDbEntity
  8
OILES
100
AcDbLine
 10
3722.001679652105
 20
371.8243911392374
 30
0.0
 11
3722.001679652105
 21
370.9591871392374
 31
0.0
  0
LINE
  5
2B9E
330
1E
100
AcDbEntity
  8
OILES
100
AcDbLine
 10
3721.902680652105
 20
370.6225941392374
 30
0.0
 11
3721.902680652105
 21
370.2415661392373
 31
0.0
  0
LINE
  5
2B9F
330
1E
100
AcDbEntity
  8
OILES
100
AcDbLine
 10
3721.902680652105
 20
371.9186601392373
 30
0.0
 11
3721.902680652105
 21
370.9591871392374
 31
0.0
  0
LINE
  5
2BA0
330
1E
100
AcDbEntity
  8
OILES
100
AcDbLine
 10
3721.803681652105
 20
370.6225941392374
 30
0.0
 11
3721.803681652105
 21
370.1673321392374
 31
0.0
  0
LINE
  5
2BA1
330
1E
100
AcDbEntity
  8
OILES
100
AcDbLine
 10
3721.803681652105
 20
371.9957471392374
 30
0.0
 11
3721.803681652105
 21
370.9591871392374
 31
0.0
  0
LINE
  5
2BA2
330
1E
100
AcDbEntity
  8
OILES
100
AcDbLine
 10
3721.110657652106
 20
370.6225941392374
 30
0.0
 11
3721.110657652106
 21
370.0167131392374
 31
0.0
  0
LINE
  5
2BA3
330
1E
100
AcDbEntity
  8
OILES
100
AcDbLine
 10
3721.011658652105
 20
370.6225941392374
 30
0.0
 11
3721.011658652105
 21
370.0167131392374
 31
0.0
  0
LINE
  5
2BA4
330
1E
100
AcDbEntity
  8
OILES
100
AcDbLine
 10
3721.506684652105
 20
370.6225941392374
 30
0.0
 11
3721.506684652105
 21
370.0459491392373
 31
0.0
  0
LINE
  5
2BA5
330
1E
100
AcDbEntity
  8
OILES
100
AcDbLine
 10
3721.506684652105
 20
372.1599621392373
 30
0.0
 11
3721.506684652105
 21
370.9591871392374
 31
0.0
  0
LINE
  5
2BA6
330
1E
100
AcDbEntity
  8
OILES
100
AcDbLine
 10
3721.407685652105
 20
370.6225941392374
 30
0.0
 11
3721.407685652105
 21
370.0276531392374
 31
0.0
  0
LINE
  5
2BA7
330
1E
100
AcDbEntity
  8
OILES
100
AcDbLine
 10
3721.407685652105
 20
372.1982771392374
 30
0.0
 11
3721.407685652105
 21
370.9591871392374
 31
0.0
  0
LINE
  5
2BA8
330
1E
100
AcDbEntity
  8
OILES
100
AcDbLine
 10
3721.308686652105
 20
370.6225941392374
 30
0.0
 11
3721.308686652105
 21
370.0182691392374
 31
0.0
  0
LINE
  5
2BA9
330
1E
100
AcDbEntity
  8
OILES
100
AcDbLine
 10
3721.308686652105
 20
372.2299851392373
 30
0.0
 11
3721.308686652105
 21
370.9591871392374
 31
0.0
  0
LINE
  5
2BAA
330
1E
100
AcDbEntity
  8
OILES
100
AcDbLine
 10
3721.209687652105
 20
370.6225941392374
 30
0.0
 11
3721.209687652105
 21
370.0173541392373
 31
0.0
  0
LINE
  5
2BAB
330
1E
100
AcDbEntity
  8
OILES
100
AcDbLine
 10
3721.704682652105
 20
370.6225941392374
 30
0.0
 11
3721.704682652105
 21
370.1134991392373
 31
0.0
  0
LINE
  5
2BAC
330
1E
100
AcDbEntity
  8
OILES
100
AcDbLine
 10
3721.704682652105
 20
372.0600941392374
 30
0.0
 11
3721.704682652105
 21
370.9591871392374
 31
0.0
  0
LINE
  5
2BAD
330
1E
100
AcDbEntity
  8
OILES
100
AcDbLine
 10
3721.605683652106
 20
370.6225941392374
 30
0.0
 11
3721.605683652106
 21
370.0740251392373
 31
0.0
  0
LINE
  5
2BAE
330
1E
100
AcDbEntity
  8
OILES
100
AcDbLine
 10
3721.605683652106
 20
372.1142931392374
 30
0.0
 11
3721.605683652106
 21
370.9591871392374
 31
0.0
  0
LINE
  5
2BAF
330
1E
100
AcDbEntity
  8
OILES
100
AcDbLine
 10
3720.021668652105
 20
372.2264301392374
 30
0.0
 11
3720.021668652105
 21
370.0958601392374
 31
0.0
  0
LINE
  5
2BB0
330
1E
100
AcDbEntity
  8
OILES
100
AcDbLine
 10
3719.922669652105
 20
372.1939441392374
 30
0.0
 11
3719.922669652105
 21
370.1283461392374
 31
0.0
  0
LINE
  5
2BB1
330
1E
100
AcDbEntity
  8
OILES
100
AcDbLine
 10
3719.823670652105
 20
372.1547901392374
 30
0.0
 11
3719.823670652105
 21
370.1675001392374
 31
0.0
  0
LINE
  5
2BB2
330
1E
100
AcDbEntity
  8
OILES
100
AcDbLine
 10
3719.724671652105
 20
372.1081281392374
 30
0.0
 11
3719.724671652105
 21
370.2141621392374
 31
0.0
  0
LINE
  5
2BB3
330
1E
100
AcDbEntity
  8
OILES
100
AcDbLine
 10
3719.625672652105
 20
372.0528001392373
 30
0.0
 11
3719.625672652105
 21
370.2694901392373
 31
0.0
  0
LINE
  5
2BB4
330
1E
100
AcDbEntity
  8
OILES
100
AcDbLine
 10
3719.526673652105
 20
371.9870651392374
 30
0.0
 11
3719.526673652105
 21
370.3352401392374
 31
0.0
  0
LINE
  5
2BB5
330
1E
100
AcDbEntity
  8
OILES
100
AcDbLine
 10
3719.427674652105
 20
371.9081471392374
 30
0.0
 11
3719.427674652105
 21
370.4141431392374
 31
0.0
  0
CIRCLE
  5
2BB6
330
1E
100
AcDbEntity
  8
OILES
100
AcDbCircle
 10
3382.276657652105
 20
444.9938701392373
 30
0.0
 40
4.0
  0
TEXT
  5
2BB7
330
1E
100
AcDbEntity
  8
OILES
100
AcDbText
 10
3405.978658172272
 20
472.9968691392373
 30
0.0
 40
5.0
  1
閉
 50
0.00001001791
 41
1.1
100
AcDbText
  0
LINE
  5
2BB8
330
1E
100
AcDbEntity
  8
OILES
100
AcDbLine
 10
3406.026657652105
 20
488.2438551392374
 30
0.0
 11
3406.026657652105
 21
483.7438551392373
 31
0.0
  0
LINE
  5
2BB9
330
1E
100
AcDbEntity
  8
OILES
100
AcDbLine
 10
3406.026657652105
 20
483.7438551392373
 30
0.0
 11
3411.026657652105
 21
483.7438551392373
 31
0.0
  0
LINE
  5
2BBA
330
1E
100
AcDbEntity
  8
OILES
100
AcDbLine
 10
3411.026657652105
 20
483.7438551392373
 30
0.0
 11
3411.026657652105
 21
488.2438551392374
 31
0.0
  0
LINE
  5
2BBB
330
1E
100
AcDbEntity
  8
OILES
100
AcDbLine
 10
3411.026657652105
 20
488.2438551392374
 30
0.0
 11
3406.026657652105
 21
488.2438551392374
 31
0.0
  0
LINE
  5
2BBC
330
1E
100
AcDbEntity
  8
OILES
100
AcDbLine
 10
3405.276657652105
 20
488.9938551392374
 30
0.0
 11
3406.026657652105
 21
488.2438551392374
 31
0.0
  0
LINE
  5
2BBD
330
1E
100
AcDbEntity
  8
OILES
100
AcDbLine
 10
3406.026657652105
 20
483.7438551392373
 30
0.0
 11
3405.276657652105
 21
482.9938551392372
 31
0.0
  0
LINE
  5
2BBE
330
1E
100
AcDbEntity
  8
OILES
100
AcDbLine
 10
3411.776657652105
 20
488.9938551392374
 30
0.0
 11
3411.026657652105
 21
488.2438551392374
 31
0.0
  0
LINE
  5
2BBF
330
1E
100
AcDbEntity
  8
OILES
100
AcDbLine
 10
3411.026657652105
 20
483.7438551392373
 30
0.0
 11
3411.776657652105
 21
482.9938551392372
 31
0.0
  0
LINE
  5
2BC0
330
1E
100
AcDbEntity
  8
OILES
100
AcDbLine
 10
3413.526657652105
 20
483.7438551392373
 30
0.0
 11
3412.776657652105
 21
482.9938551392372
 31
0.0
  0
LINE
  5
2BC1
330
1E
100
AcDbEntity
  8
OILES
100
AcDbLine
 10
3418.526657652105
 20
483.7438551392373
 30
0.0
 11
3419.276657652105
 21
482.9938551392372
 31
0.0
  0
LINE
  5
2BC2
330
1E
100
AcDbEntity
  8
OILES
100
AcDbLine
 10
3419.276657652105
 20
488.9938551392374
 30
0.0
 11
3418.526657652105
 21
488.2438551392374
 31
0.0
  0
LINE
  5
2BC3
330
1E
100
AcDbEntity
  8
OILES
100
AcDbLine
 10
3412.776657652105
 20
488.9938551392374
 30
0.0
 11
3413.526657652105
 21
488.2438551392374
 31
0.0
  0
LINE
  5
2BC4
330
1E
100
AcDbEntity
  8
OILES
100
AcDbLine
 10
3413.526657652105
 20
488.2438551392374
 30
0.0
 11
3413.526657652105
 21
483.7438551392373
 31
0.0
  0
LINE
  5
2BC5
330
1E
100
AcDbEntity
  8
OILES
100
AcDbLine
 10
3413.526657652105
 20
483.7438551392373
 30
0.0
 11
3418.526657652105
 21
483.7438551392373
 31
0.0
  0
LINE
  5
2BC6
330
1E
100
AcDbEntity
  8
OILES
100
AcDbLine
 10
3418.526657652105
 20
483.7438551392373
 30
0.0
 11
3418.526657652105
 21
488.2438551392374
 31
0.0
  0
LINE
  5
2BC7
330
1E
100
AcDbEntity
  8
OILES
100
AcDbLine
 10
3418.526657652105
 20
488.2438551392374
 30
0.0
 11
3413.526657652105
 21
488.2438551392374
 31
0.0
  0
LINE
  5
2BC8
330
1E
100
AcDbEntity
  8
OILES
100
AcDbLine
 10
3405.776657652105
 20
399.4938701392373
 30
0.0
 11
3405.776657652105
 21
412.4938701392373
 31
0.0
  0
LINE
  5
2BC9
330
1E
100
AcDbEntity
  8
OILES
100
AcDbLine
 10
3418.776657652105
 20
399.4938701392373
 30
0.0
 11
3405.776657652105
 21
399.4938701392373
 31
0.0
  0
LINE
  5
2BCA
330
1E
100
AcDbEntity
  8
OILES
100
AcDbLine
 10
3418.776657652105
 20
412.4938701392373
 30
0.0
 11
3418.776657652105
 21
399.4938701392373
 31
0.0
  0
LINE
  5
2BCB
330
1E
100
AcDbEntity
  8
OILES
100
AcDbLine
 10
3405.776657652105
 20
412.4938701392373
 30
0.0
 11
3418.776657652105
 21
412.4938701392373
 31
0.0
  0
LINE
  5
2BCC
330
1E
100
AcDbEntity
  8
OILES
100
AcDbLine
 10
3405.776657652105
 20
419.4938701392374
 30
0.0
 11
3405.776657652105
 21
432.4938701392373
 31
0.0
  0
LINE
  5
2BCD
330
1E
100
AcDbEntity
  8
OILES
100
AcDbLine
 10
3418.776657652105
 20
419.4938701392374
 30
0.0
 11
3405.776657652105
 21
419.4938701392374
 31
0.0
  0
LINE
  5
2BCE
330
1E
100
AcDbEntity
  8
OILES
100
AcDbLine
 10
3418.776657652105
 20
432.4938701392373
 30
0.0
 11
3418.776657652105
 21
419.4938701392374
 31
0.0
  0
LINE
  5
2BCF
330
1E
100
AcDbEntity
  8
OILES
100
AcDbLine
 10
3405.776657652105
 20
432.4938701392373
 30
0.0
 11
3418.776657652105
 21
432.4938701392373
 31
0.0
  0
LINE
  5
2BD0
330
1E
100
AcDbEntity
  8
OILES
100
AcDbLine
 10
3418.776657652105
 20
439.4938701392374
 30
0.0
 11
3405.776657652105
 21
439.4938701392374
 31
0.0
  0
LINE
  5
2BD1
330
1E
100
AcDbEntity
  8
OILES
100
AcDbLine
 10
3418.776657652105
 20
452.4938701392374
 30
0.0
 11
3418.776657652105
 21
439.4938701392374
 31
0.0
  0
LINE
  5
2BD2
330
1E
100
AcDbEntity
  8
OILES
100
AcDbLine
 10
3405.776657652105
 20
452.4938701392374
 30
0.0
 11
3418.776657652105
 21
452.4938701392374
 31
0.0
  0
LINE
  5
2BD3
330
1E
100
AcDbEntity
  8
OILES
100
AcDbLine
 10
3405.776657652105
 20
439.4938701392374
 30
0.0
 11
3405.776657652105
 21
452.4938701392374
 31
0.0
  0
LINE
  5
2BD4
330
1E
100
AcDbEntity
  8
OILES
100
AcDbLine
 10
3546.026657652105
 20
488.2438551392374
 30
0.0
 11
3546.026657652105
 21
483.7438551392373
 31
0.0
  0
LINE
  5
2BD5
330
1E
100
AcDbEntity
  8
OILES
100
AcDbLine
 10
3546.026657652105
 20
483.7438551392373
 30
0.0
 11
3551.026657652105
 21
483.7438551392373
 31
0.0
  0
LINE
  5
2BD6
330
1E
100
AcDbEntity
  8
OILES
100
AcDbLine
 10
3551.026657652105
 20
483.7438551392373
 30
0.0
 11
3551.026657652105
 21
488.2438551392374
 31
0.0
  0
LINE
  5
2BD7
330
1E
100
AcDbEntity
  8
OILES
100
AcDbLine
 10
3551.026657652105
 20
488.2438551392374
 30
0.0
 11
3546.026657652105
 21
488.2438551392374
 31
0.0
  0
LINE
  5
2BD8
330
1E
100
AcDbEntity
  8
OILES
100
AcDbLine
 10
3545.276657652105
 20
488.9938551392374
 30
0.0
 11
3546.026657652105
 21
488.2438551392374
 31
0.0
  0
LINE
  5
2BD9
330
1E
100
AcDbEntity
  8
OILES
100
AcDbLine
 10
3546.026657652105
 20
483.7438551392373
 30
0.0
 11
3545.276657652105
 21
482.9938551392372
 31
0.0
  0
LINE
  5
2BDA
330
1E
100
AcDbEntity
  8
OILES
100
AcDbLine
 10
3551.776657652105
 20
488.9938551392374
 30
0.0
 11
3551.026657652105
 21
488.2438551392374
 31
0.0
  0
LINE
  5
2BDB
330
1E
100
AcDbEntity
  8
OILES
100
AcDbLine
 10
3551.026657652105
 20
483.7438551392373
 30
0.0
 11
3551.776657652105
 21
482.9938551392372
 31
0.0
  0
LINE
  5
2BDC
330
1E
100
AcDbEntity
  8
OILES
100
AcDbLine
 10
3553.526657652105
 20
483.7438551392373
 30
0.0
 11
3552.776657652105
 21
482.9938551392372
 31
0.0
  0
LINE
  5
2BDD
330
1E
100
AcDbEntity
  8
OILES
100
AcDbLine
 10
3558.526657652105
 20
483.7438551392373
 30
0.0
 11
3559.276657652105
 21
482.9938551392372
 31
0.0
  0
LINE
  5
2BDE
330
1E
100
AcDbEntity
  8
OILES
100
AcDbLine
 10
3559.276657652105
 20
488.9938551392374
 30
0.0
 11
3558.526657652105
 21
488.2438551392374
 31
0.0
  0
LINE
  5
2BDF
330
1E
100
AcDbEntity
  8
OILES
100
AcDbLine
 10
3552.776657652105
 20
488.9938551392374
 30
0.0
 11
3553.526657652105
 21
488.2438551392374
 31
0.0
  0
LINE
  5
2BE0
330
1E
100
AcDbEntity
  8
OILES
100
AcDbLine
 10
3553.526657652105
 20
488.2438551392374
 30
0.0
 11
3553.526657652105
 21
483.7438551392373
 31
0.0
  0
LINE
  5
2BE1
330
1E
100
AcDbEntity
  8
OILES
100
AcDbLine
 10
3553.526657652105
 20
483.7438551392373
 30
0.0
 11
3558.526657652105
 21
483.7438551392373
 31
0.0
  0
LINE
  5
2BE2
330
1E
100
AcDbEntity
  8
OILES
100
AcDbLine
 10
3558.526657652105
 20
483.7438551392373
 30
0.0
 11
3558.526657652105
 21
488.2438551392374
 31
0.0
  0
LINE
  5
2BE3
330
1E
100
AcDbEntity
  8
OILES
100
AcDbLine
 10
3558.526657652105
 20
488.2438551392374
 30
0.0
 11
3553.526657652105
 21
488.2438551392374
 31
0.0
  0
LINE
  5
2BE4
330
1E
100
AcDbEntity
  8
OILES
100
AcDbLine
 10
3545.776657652105
 20
399.4938701392373
 30
0.0
 11
3545.776657652105
 21
412.4938701392373
 31
0.0
  0
LINE
  5
2BE5
330
1E
100
AcDbEntity
  8
OILES
100
AcDbLine
 10
3558.776657652105
 20
399.4938701392373
 30
0.0
 11
3545.776657652105
 21
399.4938701392373
 31
0.0
  0
LINE
  5
2BE6
330
1E
100
AcDbEntity
  8
OILES
100
AcDbLine
 10
3558.776657652105
 20
412.4938701392373
 30
0.0
 11
3558.776657652105
 21
399.4938701392373
 31
0.0
  0
LINE
  5
2BE7
330
1E
100
AcDbEntity
  8
OILES
100
AcDbLine
 10
3545.776657652105
 20
412.4938701392373
 30
0.0
 11
3558.776657652105
 21
412.4938701392373
 31
0.0
  0
LINE
  5
2BE8
330
1E
100
AcDbEntity
  8
OILES
100
AcDbLine
 10
3545.776657652105
 20
419.4938701392374
 30
0.0
 11
3545.776657652105
 21
432.4938701392373
 31
0.0
  0
LINE
  5
2BE9
330
1E
100
AcDbEntity
  8
OILES
100
AcDbLine
 10
3558.776657652105
 20
419.4938701392374
 30
0.0
 11
3545.776657652105
 21
419.4938701392374
 31
0.0
  0
LINE
  5
2BEA
330
1E
100
AcDbEntity
  8
OILES
100
AcDbLine
 10
3558.776657652105
 20
432.4938701392373
 30
0.0
 11
3558.776657652105
 21
419.4938701392374
 31
0.0
  0
LINE
  5
2BEB
330
1E
100
AcDbEntity
  8
OILES
100
AcDbLine
 10
3545.776657652105
 20
432.4938701392373
 30
0.0
 11
3558.776657652105
 21
432.4938701392373
 31
0.0
  0
LINE
  5
2BEC
330
1E
100
AcDbEntity
  8
OILES
100
AcDbLine
 10
3558.776657652105
 20
439.4938701392374
 30
0.0
 11
3545.776657652105
 21
439.4938701392374
 31
0.0
  0
LINE
  5
2BED
330
1E
100
AcDbEntity
  8
OILES
100
AcDbLine
 10
3558.776657652105
 20
452.4938701392374
 30
0.0
 11
3558.776657652105
 21
439.4938701392374
 31
0.0
  0
LINE
  5
2BEE
330
1E
100
AcDbEntity
  8
OILES
100
AcDbLine
 10
3545.776657652105
 20
452.4938701392374
 30
0.0
 11
3558.776657652105
 21
452.4938701392374
 31
0.0
  0
LINE
  5
2BEF
330
1E
100
AcDbEntity
  8
OILES
100
AcDbLine
 10
3545.776657652105
 20
439.4938701392374
 30
0.0
 11
3545.776657652105
 21
452.4938701392374
 31
0.0
  0
LINE
  5
2BF0
330
1E
100
AcDbEntity
  8
OILES
100
AcDbLine
 10
3719.328675652106
 20
371.8113141392374
 30
0.0
 11
3719.328675652106
 21
370.5109761392374
 31
0.0
  0
LINE
  5
2BF1
330
1E
100
AcDbEntity
  8
OILES
100
AcDbLine
 10
3719.229676652105
 20
371.6867111392373
 30
0.0
 11
3719.229676652105
 21
370.6355791392374
 31
0.0
  0
LINE
  5
2BF2
330
1E
100
AcDbEntity
  8
OILES
100
AcDbLine
 10
3719.130677652105
 20
371.5054521392374
 30
0.0
 11
3719.130677652105
 21
370.8168531392374
 31
0.0
  0
LINE
  5
2BF3
330
1E
100
AcDbEntity
  8
OILES
100
AcDbLine
 10
3722.199677652105
 20
371.5332531392373
 30
0.0
 11
3722.199677652105
 21
370.9591871392374
 31
0.0
  0
LINE
  5
2BF4
330
1E
100
AcDbEntity
  8
OILES
100
AcDbLine
 10
3722.100678652105
 20
371.7040761392374
 30
0.0
 11
3722.100678652105
 21
370.9591871392374
 31
0.0
  0
CIRCLE
  5
2BF5
330
1E
100
AcDbEntity
  8
OILES
  6
DASHED
 48
0.5
100
AcDbCircle
 10
3387.276657652105
 20
499.9938551392373
 30
0.0
 40
3.5
  0
CIRCLE
  5
2BF6
330
1E
100
AcDbEntity
  8
OILES
  6
DASHED
 48
0.5
100
AcDbCircle
 10
3387.276657652105
 20
389.9938701392374
 30
0.0
 40
3.5
  0
LINE
  5
2D6C
330
1E
100
AcDbEntity
  8
OILES
100
AcDbLine
 10
3686.026642652105
 20
488.2438551392374
 30
0.0
 11
3686.026642652105
 21
483.7438551392373
 31
0.0
  0
LINE
  5
2D6D
330
1E
100
AcDbEntity
  8
OILES
100
AcDbLine
 10
3686.026642652105
 20
483.7438551392373
 30
0.0
 11
3691.026642652105
 21
483.7438551392373
 31
0.0
  0
LINE
  5
2D6E
330
1E
100
AcDbEntity
  8
OILES
100
AcDbLine
 10
3691.026642652105
 20
483.7438551392373
 30
0.0
 11
3691.026642652105
 21
488.2438551392374
 31
0.0
  0
LINE
  5
2D6F
330
1E
100
AcDbEntity
  8
OILES
100
AcDbLine
 10
3691.026642652105
 20
488.2438551392374
 30
0.0
 11
3686.026642652105
 21
488.2438551392374
 31
0.0
  0
LINE
  5
2D70
330
1E
100
AcDbEntity
  8
OILES
100
AcDbLine
 10
3685.276642652105
 20
488.9938551392374
 30
0.0
 11
3686.026642652105
 21
488.2438551392374
 31
0.0
  0
LINE
  5
2D71
330
1E
100
AcDbEntity
  8
OILES
100
AcDbLine
 10
3686.026642652105
 20
483.7438551392373
 30
0.0
 11
3685.276642652105
 21
482.9938551392372
 31
0.0
  0
LINE
  5
2D72
330
1E
100
AcDbEntity
  8
OILES
100
AcDbLine
 10
3691.776642652105
 20
488.9938551392374
 30
0.0
 11
3691.026642652105
 21
488.2438551392374
 31
0.0
  0
LINE
  5
2D73
330
1E
100
AcDbEntity
  8
OILES
100
AcDbLine
 10
3691.026642652105
 20
483.7438551392373
 30
0.0
 11
3691.776642652105
 21
482.9938551392372
 31
0.0
  0
LINE
  5
2D74
330
1E
100
AcDbEntity
  8
OILES
100
AcDbLine
 10
3693.526642652105
 20
483.7438551392373
 30
0.0
 11
3692.776642652105
 21
482.9938551392372
 31
0.0
  0
LINE
  5
2D75
330
1E
100
AcDbEntity
  8
OILES
100
AcDbLine
 10
3698.526642652105
 20
483.7438551392373
 30
0.0
 11
3699.276642652105
 21
482.9938551392372
 31
0.0
  0
LINE
  5
2D76
330
1E
100
AcDbEntity
  8
OILES
100
AcDbLine
 10
3699.276642652105
 20
488.9938551392374
 30
0.0
 11
3698.526642652105
 21
488.2438551392374
 31
0.0
  0
LINE
  5
2D77
330
1E
100
AcDbEntity
  8
OILES
100
AcDbLine
 10
3692.776642652105
 20
488.9938551392374
 30
0.0
 11
3693.526642652105
 21
488.2438551392374
 31
0.0
  0
LINE
  5
2D78
330
1E
100
AcDbEntity
  8
OILES
100
AcDbLine
 10
3693.526642652105
 20
488.2438551392374
 30
0.0
 11
3693.526642652105
 21
483.7438551392373
 31
0.0
  0
LINE
  5
2D79
330
1E
100
AcDbEntity
  8
OILES
100
AcDbLine
 10
3693.526642652105
 20
483.7438551392373
 30
0.0
 11
3698.526642652105
 21
483.7438551392373
 31
0.0
  0
LINE
  5
2D7A
330
1E
100
AcDbEntity
  8
OILES
100
AcDbLine
 10
3698.526642652105
 20
483.7438551392373
 30
0.0
 11
3698.526642652105
 21
488.2438551392374
 31
0.0
  0
LINE
  5
2D7B
330
1E
100
AcDbEntity
  8
OILES
100
AcDbLine
 10
3698.526642652105
 20
488.2438551392374
 30
0.0
 11
3693.526642652105
 21
488.2438551392374
 31
0.0
  0
LINE
  5
2D7C
330
1E
100
AcDbEntity
  8
OILES
100
AcDbLine
 10
3685.776642652105
 20
399.4938701392373
 30
0.0
 11
3685.776642652105
 21
412.4938701392373
 31
0.0
  0
LINE
  5
2D7D
330
1E
100
AcDbEntity
  8
OILES
100
AcDbLine
 10
3698.776642652105
 20
399.4938701392373
 30
0.0
 11
3685.776642652105
 21
399.4938701392373
 31
0.0
  0
LINE
  5
2D7E
330
1E
100
AcDbEntity
  8
OILES
100
AcDbLine
 10
3698.776642652105
 20
412.4938701392373
 30
0.0
 11
3698.776642652105
 21
399.4938701392373
 31
0.0
  0
LINE
  5
2D7F
330
1E
100
AcDbEntity
  8
OILES
100
AcDbLine
 10
3685.776642652105
 20
412.4938701392373
 30
0.0
 11
3698.776642652105
 21
412.4938701392373
 31
0.0
  0
LINE
  5
2D80
330
1E
100
AcDbEntity
  8
OILES
100
AcDbLine
 10
3685.776642652105
 20
419.4938701392374
 30
0.0
 11
3685.776642652105
 21
432.4938701392373
 31
0.0
  0
LINE
  5
2D81
330
1E
100
AcDbEntity
  8
OILES
100
AcDbLine
 10
3698.776642652105
 20
419.4938701392374
 30
0.0
 11
3685.776642652105
 21
419.4938701392374
 31
0.0
  0
LINE
  5
2D82
330
1E
100
AcDbEntity
  8
OILES
100
AcDbLine
 10
3698.776642652105
 20
432.4938701392373
 30
0.0
 11
3698.776642652105
 21
419.4938701392374
 31
0.0
  0
LINE
  5
2D83
330
1E
100
AcDbEntity
  8
OILES
100
AcDbLine
 10
3685.776642652105
 20
432.4938701392373
 30
0.0
 11
3698.776642652105
 21
432.4938701392373
 31
0.0
  0
LINE
  5
2D84
330
1E
100
AcDbEntity
  8
OILES
100
AcDbLine
 10
3698.776642652105
 20
439.4938701392374
 30
0.0
 11
3685.776642652105
 21
439.4938701392374
 31
0.0
  0
LINE
  5
2D85
330
1E
100
AcDbEntity
  8
OILES
100
AcDbLine
 10
3698.776642652105
 20
452.4938701392374
 30
0.0
 11
3698.776642652105
 21
439.4938701392374
 31
0.0
  0
LINE
  5
2D86
330
1E
100
AcDbEntity
  8
OILES
100
AcDbLine
 10
3685.776642652105
 20
452.4938701392374
 30
0.0
 11
3698.776642652105
 21
452.4938701392374
 31
0.0
  0
LINE
  5
2D87
330
1E
100
AcDbEntity
  8
OILES
100
AcDbLine
 10
3685.776642652105
 20
439.4938701392374
 30
0.0
 11
3685.776642652105
 21
452.4938701392374
 31
0.0
  0
CIRCLE
  5
2D88
330
1E
100
AcDbEntity
  8
OILES
100
AcDbCircle
 10
3722.276642652105
 20
444.9938701392373
 30
0.0
 40
4.0
  0
CIRCLE
  5
2D89
330
1E
100
AcDbEntity
  8
OILES
  6
DASHED
 48
0.5
100
AcDbCircle
 10
3717.276642652105
 20
389.9938701392374
 30
0.0
 40
3.5
  0
LINE
  5
2D8A
330
1E
100
AcDbEntity
  8
OILES
100
AcDbLine
 10
3616.026642652105
 20
488.2438551392374
 30
0.0
 11
3616.026642652105
 21
483.7438551392373
 31
0.0
  0
LINE
  5
2D8B
330
1E
100
AcDbEntity
  8
OILES
100
AcDbLine
 10
3616.026642652105
 20
483.7438551392373
 30
0.0
 11
3621.026642652105
 21
483.7438551392373
 31
0.0
  0
LINE
  5
2D8C
330
1E
100
AcDbEntity
  8
OILES
100
AcDbLine
 10
3621.026642652105
 20
483.7438551392373
 30
0.0
 11
3621.026642652105
 21
488.2438551392374
 31
0.0
  0
LINE
  5
2D8D
330
1E
100
AcDbEntity
  8
OILES
100
AcDbLine
 10
3621.026642652105
 20
488.2438551392374
 30
0.0
 11
3616.026642652105
 21
488.2438551392374
 31
0.0
  0
LINE
  5
2D8E
330
1E
100
AcDbEntity
  8
OILES
100
AcDbLine
 10
3615.276642652105
 20
488.9938551392374
 30
0.0
 11
3616.026642652105
 21
488.2438551392374
 31
0.0
  0
LINE
  5
2D8F
330
1E
100
AcDbEntity
  8
OILES
100
AcDbLine
 10
3616.026642652105
 20
483.7438551392373
 30
0.0
 11
3615.276642652105
 21
482.9938551392372
 31
0.0
  0
LINE
  5
2D90
330
1E
100
AcDbEntity
  8
OILES
100
AcDbLine
 10
3621.776642652104
 20
488.9938551392374
 30
0.0
 11
3621.026642652105
 21
488.2438551392374
 31
0.0
  0
LINE
  5
2D91
330
1E
100
AcDbEntity
  8
OILES
100
AcDbLine
 10
3621.026642652105
 20
483.7438551392373
 30
0.0
 11
3621.776642652104
 21
482.9938551392372
 31
0.0
  0
LINE
  5
2D92
330
1E
100
AcDbEntity
  8
OILES
100
AcDbLine
 10
3623.526642652105
 20
483.7438551392373
 30
0.0
 11
3622.776642652105
 21
482.9938551392372
 31
0.0
  0
LINE
  5
2D93
330
1E
100
AcDbEntity
  8
OILES
100
AcDbLine
 10
3628.526642652105
 20
483.7438551392373
 30
0.0
 11
3629.276642652105
 21
482.9938551392372
 31
0.0
  0
LINE
  5
2D94
330
1E
100
AcDbEntity
  8
OILES
100
AcDbLine
 10
3629.276642652105
 20
488.9938551392374
 30
0.0
 11
3628.526642652105
 21
488.2438551392374
 31
0.0
  0
LINE
  5
2D95
330
1E
100
AcDbEntity
  8
OILES
100
AcDbLine
 10
3622.776642652105
 20
488.9938551392374
 30
0.0
 11
3623.526642652105
 21
488.2438551392374
 31
0.0
  0
LINE
  5
2D96
330
1E
100
AcDbEntity
  8
OILES
100
AcDbLine
 10
3623.526642652105
 20
488.2438551392374
 30
0.0
 11
3623.526642652105
 21
483.7438551392373
 31
0.0
  0
LINE
  5
2D97
330
1E
100
AcDbEntity
  8
OILES
100
AcDbLine
 10
3623.526642652105
 20
483.7438551392373
 30
0.0
 11
3628.526642652105
 21
483.7438551392373
 31
0.0
  0
LINE
  5
2D98
330
1E
100
AcDbEntity
  8
OILES
100
AcDbLine
 10
3628.526642652105
 20
483.7438551392373
 30
0.0
 11
3628.526642652105
 21
488.2438551392374
 31
0.0
  0
LINE
  5
2D99
330
1E
100
AcDbEntity
  8
OILES
100
AcDbLine
 10
3628.526642652105
 20
488.2438551392374
 30
0.0
 11
3623.526642652105
 21
488.2438551392374
 31
0.0
  0
LINE
  5
2D9A
330
1E
100
AcDbEntity
  8
OILES
100
AcDbLine
 10
3615.776642652105
 20
399.4938701392373
 30
0.0
 11
3615.776642652105
 21
412.4938701392373
 31
0.0
  0
LINE
  5
2D9B
330
1E
100
AcDbEntity
  8
OILES
100
AcDbLine
 10
3628.776642652105
 20
399.4938701392373
 30
0.0
 11
3615.776642652105
 21
399.4938701392373
 31
0.0
  0
LINE
  5
2D9C
330
1E
100
AcDbEntity
  8
OILES
100
AcDbLine
 10
3628.776642652105
 20
412.4938701392373
 30
0.0
 11
3628.776642652105
 21
399.4938701392373
 31
0.0
  0
LINE
  5
2D9D
330
1E
100
AcDbEntity
  8
OILES
100
AcDbLine
 10
3615.776642652105
 20
412.4938701392373
 30
0.0
 11
3628.776642652105
 21
412.4938701392373
 31
0.0
  0
LINE
  5
2D9E
330
1E
100
AcDbEntity
  8
OILES
100
AcDbLine
 10
3615.776642652105
 20
419.4938701392374
 30
0.0
 11
3615.776642652105
 21
432.4938701392373
 31
0.0
  0
LINE
  5
2D9F
330
1E
100
AcDbEntity
  8
OILES
100
AcDbLine
 10
3628.776642652105
 20
419.4938701392374
 30
0.0
 11
3615.776642652105
 21
419.4938701392374
 31
0.0
  0
LINE
  5
2DA0
330
1E
100
AcDbEntity
  8
OILES
100
AcDbLine
 10
3628.776642652105
 20
432.4938701392373
 30
0.0
 11
3628.776642652105
 21
419.4938701392374
 31
0.0
  0
LINE
  5
2DA1
330
1E
100
AcDbEntity
  8
OILES
100
AcDbLine
 10
3615.776642652105
 20
432.4938701392373
 30
0.0
 11
3628.776642652105
 21
432.4938701392373
 31
0.0
  0
LINE
  5
2DA2
330
1E
100
AcDbEntity
  8
OILES
100
AcDbLine
 10
3628.776642652105
 20
439.4938701392374
 30
0.0
 11
3615.776642652105
 21
439.4938701392374
 31
0.0
  0
LINE
  5
2DA3
330
1E
100
AcDbEntity
  8
OILES
100
AcDbLine
 10
3628.776642652105
 20
452.4938701392374
 30
0.0
 11
3628.776642652105
 21
439.4938701392374
 31
0.0
  0
LINE
  5
2DA4
330
1E
100
AcDbEntity
  8
OILES
100
AcDbLine
 10
3615.776642652105
 20
452.4938701392374
 30
0.0
 11
3628.776642652105
 21
452.4938701392374
 31
0.0
  0
LINE
  5
2DA5
330
1E
100
AcDbEntity
  8
OILES
100
AcDbLine
 10
3615.776642652105
 20
439.4938701392374
 30
0.0
 11
3615.776642652105
 21
452.4938701392374
 31
0.0
  0
TEXT
  5
2DA6
330
1E
100
AcDbEntity
  8
OILES
100
AcDbText
 10
3498.276657652105
 20
504.9938551392373
 30
0.0
 40
9.999999
  1
排煙装置集中制御盤
100
AcDbText
  0
TEXT
  5
2DA7
330
1E
100
AcDbEntity
  8
OILES
100
AcDbText
 10
3510.193324652105
 20
459.9938701392374
 30
0.0
 40
5.0
  1
火災発生時に開ボタンを押してください
 41
0.833333
100
AcDbText
  0
LINE
  5
2DA8
330
1E
100
AcDbEntity
  8
OILES
100
AcDbLine
 10
3724.852570652105
 20
372.3055921392374
 30
0.0
 11
3724.852570652105
 21
371.4953811392373
 31
0.0
  0
LINE
  5
2DA9
330
1E
100
AcDbEntity
  8
OILES
100
AcDbLine
 10
3724.852570652105
 20
370.8912251392373
 30
0.0
 11
3724.852570652105
 21
370.0167131392374
 31
0.0
  0
LINE
  5
2DAA
330
1E
100
AcDbEntity
  8
OILES
100
AcDbLine
 10
3724.951569652105
 20
372.3055921392374
 30
0.0
 11
3724.951569652105
 21
371.5993241392374
 31
0.0
  0
LINE
  5
2DAB
330
1E
100
AcDbEntity
  8
OILES
100
AcDbLine
 10
3724.951569652105
 20
370.7790271392374
 30
0.0
 11
3724.951569652105
 21
370.0167131392374
 31
0.0
  0
LINE
  5
2DAC
330
1E
100
AcDbEntity
  8
OILES
100
AcDbLine
 10
3725.050568652105
 20
372.3055921392374
 30
0.0
 11
3725.050568652105
 21
371.7032671392374
 31
0.0
  0
LINE
  5
2DAD
330
1E
100
AcDbEntity
  8
OILES
100
AcDbLine
 10
3725.050568652105
 20
370.6668291392374
 30
0.0
 11
3725.050568652105
 21
370.0167131392374
 31
0.0
  0
LINE
  5
2DAE
330
1E
100
AcDbEntity
  8
OILES
100
AcDbLine
 10
3725.149567652105
 20
372.3055921392374
 30
0.0
 11
3725.149567652105
 21
371.8072251392373
 31
0.0
  0
LINE
  5
2DAF
330
1E
100
AcDbEntity
  8
OILES
100
AcDbLine
 10
3725.149567652105
 20
370.5546311392374
 30
0.0
 11
3725.149567652105
 21
370.0167131392374
 31
0.0
  0
LINE
  5
2DB0
330
1E
100
AcDbEntity
  8
OILES
100
AcDbLine
 10
3725.248566652105
 20
372.3055921392374
 30
0.0
 11
3725.248566652105
 21
371.9111681392373
 31
0.0
  0
LINE
  5
2DB1
330
1E
100
AcDbEntity
  8
OILES
100
AcDbLine
 10
3725.248566652105
 20
370.4424181392373
 30
0.0
 11
3725.248566652105
 21
370.0167131392374
 31
0.0
  0
LINE
  5
2DB2
330
1E
100
AcDbEntity
  8
OILES
100
AcDbLine
 10
3725.347565652106
 20
372.3055921392374
 30
0.0
 11
3725.347565652106
 21
372.0151261392373
 31
0.0
  0
LINE
  5
2DB3
330
1E
100
AcDbEntity
  8
OILES
100
AcDbLine
 10
3725.347565652106
 20
370.3302201392373
 30
0.0
 11
3725.347565652106
 21
370.0167131392374
 31
0.0
  0
LINE
  5
2DB4
330
1E
100
AcDbEntity
  8
OILES
100
AcDbLine
 10
3725.446564652105
 20
372.3055921392374
 30
0.0
 11
3725.446564652105
 21
372.1190691392374
 31
0.0
  0
LINE
  5
2DB5
330
1E
100
AcDbEntity
  8
OILES
100
AcDbLine
 10
3725.446564652105
 20
370.2180221392374
 30
0.0
 11
3725.446564652105
 21
370.0167131392374
 31
0.0
  0
LINE
  5
2DB6
330
1E
100
AcDbEntity
  8
OILES
100
AcDbLine
 10
3722.594788652105
 20
372.3055921392374
 30
0.0
 11
3723.604615652106
 21
372.3055921392374
 31
0.0
  0
LINE
  5
2DB7
330
1E
100
AcDbEntity
  8
OILES
100
AcDbLine
 10
3723.604615652106
 20
372.3055921392374
 30
0.0
 11
3724.090241652105
 21
371.7552081392374
 31
0.0
  0
LINE
  5
2DB8
330
1E
100
AcDbEntity
  8
OILES
100
AcDbLine
 10
3724.090241652105
 20
371.7552081392374
 30
0.0
 11
3724.614411652105
 21
372.3055921392374
 31
0.0
  0
LINE
  5
2DB9
330
1E
100
AcDbEntity
  8
OILES
100
AcDbLine
 10
3724.614411652105
 20
372.3055921392374
 30
0.0
 11
3725.624207652105
 21
372.3055921392374
 31
0.0
  0
LINE
  5
2DBA
330
1E
100
AcDbEntity
  8
OILES
100
AcDbLine
 10
3725.624207652105
 20
372.3055921392374
 30
0.0
 11
3724.575867652105
 21
371.2048231392373
 31
0.0
  0
LINE
  5
2DBB
330
1E
100
AcDbEntity
  8
OILES
100
AcDbLine
 10
3724.575867652105
 20
371.2048231392373
 30
0.0
 11
3725.624207652105
 21
370.0167131392374
 31
0.0
  0
LINE
  5
2DBC
330
1E
100
AcDbEntity
  8
OILES
100
AcDbLine
 10
3725.624207652105
 20
370.0167131392374
 30
0.0
 11
3724.614411652105
 21
370.0167131392374
 31
0.0
  0
LINE
  5
2DBD
330
1E
100
AcDbEntity
  8
OILES
100
AcDbLine
 10
3724.614411652105
 20
370.0167131392374
 30
0.0
 11
3724.051697652105
 21
370.6544541392374
 31
0.0
  0
LINE
  5
2DBE
330
1E
100
AcDbEntity
  8
OILES
100
AcDbLine
 10
3724.051697652105
 20
370.6544541392374
 30
0.0
 11
3723.604615652106
 21
370.1850021392373
 31
0.0
  0
LINE
  5
2DBF
330
1E
100
AcDbEntity
  8
OILES
100
AcDbLine
 10
3723.604615652106
 20
370.1850021392373
 30
0.0
 11
3722.594788652105
 21
370.1850021392373
 31
0.0
  0
LINE
  5
2DC0
330
1E
100
AcDbEntity
  8
OILES
100
AcDbLine
 10
3722.594788652105
 20
370.1850021392373
 30
0.0
 11
3723.566071652105
 21
371.2048231392373
 31
0.0
  0
LINE
  5
2DC1
330
1E
100
AcDbEntity
  8
OILES
100
AcDbLine
 10
3723.566071652105
 20
371.2048231392373
 30
0.0
 11
3722.594788652105
 21
372.3055921392374
 31
0.0
  0
LINE
  5
2DC2
330
1E
100
AcDbEntity
  8
OILES
100
AcDbLine
 10
3717.545807652105
 20
372.8778121392374
 30
0.0
 11
3718.555603652106
 21
372.8778121392374
 31
0.0
  0
LINE
  5
2DC3
330
1E
100
AcDbEntity
  8
OILES
100
AcDbLine
 10
3718.555603652106
 20
372.8778121392374
 30
0.0
 11
3718.555603652106
 21
370.0167131392374
 31
0.0
  0
LINE
  5
2DC4
330
1E
100
AcDbEntity
  8
OILES
100
AcDbLine
 10
3718.555603652106
 20
370.0167131392374
 30
0.0
 11
3717.545807652105
 21
370.0167131392374
 31
0.0
  0
LINE
  5
2DC5
330
1E
100
AcDbEntity
  8
OILES
100
AcDbLine
 10
3717.545807652105
 20
370.0167131392374
 30
0.0
 11
3717.545807652105
 21
372.8778121392374
 31
0.0
  0
LINE
  5
2DC6
330
1E
100
AcDbEntity
  8
OILES
100
AcDbLine
 10
3711.895661652106
 20
372.2173661392373
 30
0.0
 11
3712.328492652105
 21
372.0363051392374
 31
0.0
  0
LINE
  5
2DC7
330
1E
100
AcDbEntity
  8
OILES
100
AcDbLine
 10
3712.328492652105
 20
372.0363051392374
 30
0.0
 11
3712.328492652105
 21
372.3055921392374
 31
0.0
  0
LINE
  5
2DC8
330
1E
100
AcDbEntity
  8
OILES
100
AcDbLine
 10
3712.328492652105
 20
372.3055921392374
 30
0.0
 11
3713.338288652105
 21
372.3055921392374
 31
0.0
  0
LINE
  5
2DC9
330
1E
100
AcDbEntity
  8
OILES
100
AcDbLine
 10
3713.338288652105
 20
372.3055921392374
 30
0.0
 11
3713.338288652105
 21
370.0167131392374
 31
0.0
  0
LINE
  5
2DCA
330
1E
100
AcDbEntity
  8
OILES
100
AcDbLine
 10
3713.338288652105
 20
370.0167131392374
 30
0.0
 11
3712.328492652105
 21
370.0167131392374
 31
0.0
  0
LINE
  5
2DCB
330
1E
100
AcDbEntity
  8
OILES
100
AcDbLine
 10
3712.328492652105
 20
370.0167131392374
 30
0.0
 11
3712.328492652105
 21
370.2859851392374
 31
0.0
  0
LINE
  5
2DCC
330
1E
100
AcDbEntity
  8
OILES
100
AcDbLine
 10
3712.328492652105
 20
370.2859851392374
 30
0.0
 11
3711.895661652106
 21
370.1049241392374
 31
0.0
  0
ARC
  5
2DCD
330
1E
100
AcDbEntity
  8
OILES
100
AcDbCircle
 10
3711.453827652106
 20
371.1611531392374
 30
0.0
 40
1.144920999999999
100
AcDbArc
 50
67.29954400000668
 51
292.7001610000019
  0
CIRCLE
  5
2DCE
330
1E
100
AcDbEntity
  8
OILES
100
AcDbCircle
 10
3711.823609652106
 20
371.1611531392374
 30
0.0
 40
0.5049000000000001
  0
CIRCLE
  5
2DCF
330
1E
100
AcDbEntity
  8
OILES
100
AcDbCircle
 10
3715.526215652105
 20
371.1611531392374
 30
0.0
 40
0.5049000000000001
  0
ARC
  5
2DD0
330
1E
100
AcDbEntity
  8
OILES
100
AcDbCircle
 10
3715.895966652105
 20
371.1611531392374
 30
0.0
 40
1.144920999999999
100
AcDbArc
 50
247.2998389999982
 51
112.7004559999933
  0
LINE
  5
2DD1
330
1E
100
AcDbEntity
  8
OILES
100
AcDbLine
 10
3715.454132652105
 20
372.2173661392373
 30
0.0
 11
3715.021302652105
 21
372.0363051392374
 31
0.0
  0
LINE
  5
2DD2
330
1E
100
AcDbEntity
  8
OILES
100
AcDbLine
 10
3715.021302652105
 20
372.0363051392374
 30
0.0
 11
3715.021302652105
 21
372.8778121392374
 31
0.0
  0
LINE
  5
2DD3
330
1E
100
AcDbEntity
  8
OILES
100
AcDbLine
 10
3715.021302652105
 20
372.8778121392374
 30
0.0
 11
3714.011505652105
 21
372.8778121392374
 31
0.0
  0
LINE
  5
2DD4
330
1E
100
AcDbEntity
  8
OILES
100
AcDbLine
 10
3714.011505652105
 20
372.8778121392374
 30
0.0
 11
3714.011505652105
 21
370.0167131392374
 31
0.0
  0
LINE
  5
2DD5
330
1E
100
AcDbEntity
  8
OILES
100
AcDbLine
 10
3714.011505652105
 20
370.0167131392374
 30
0.0
 11
3715.021302652105
 21
370.0167131392374
 31
0.0
  0
LINE
  5
2DD6
330
1E
100
AcDbEntity
  8
OILES
100
AcDbLine
 10
3715.021302652105
 20
370.0167131392374
 30
0.0
 11
3715.021302652105
 21
370.2859851392374
 31
0.0
  0
LINE
  5
2DD7
330
1E
100
AcDbEntity
  8
OILES
100
AcDbLine
 10
3715.021302652105
 20
370.2859851392374
 30
0.0
 11
3715.454132652105
 21
370.1049241392374
 31
0.0
  0
ARC
  5
2DD8
330
1E
100
AcDbEntity
  8
OILES
100
AcDbCircle
 10
3708.093201652105
 20
371.4304241392373
 30
0.0
 40
1.683
100
AcDbArc
 50
23.57803900000285
 51
90.0
  0
ARC
  5
2DD9
330
1E
100
AcDbEntity
  8
OILES
100
AcDbCircle
 10
3708.093201652105
 20
371.4304241392373
 30
0.0
 40
1.683
100
AcDbArc
 50
270.0
 51
336.4219609999971
  0
LINE
  5
2DDA
330
1E
100
AcDbEntity
  8
OILES
100
AcDbLine
 10
3709.635712652106
 20
372.1036271392374
 30
0.0
 11
3708.625885652105
 21
371.9353221392374
 31
0.0
  0
ARC
  5
2DDB
330
1E
100
AcDbEntity
  8
OILES
100
AcDbCircle
 10
3707.850068652105
 20
371.4304241392373
 30
0.0
 40
0.9256499999999999
100
AcDbArc
 50
33.05586099999646
 51
326.9441390000035
  0
LINE
  5
2DDC
330
1E
100
AcDbEntity
  8
OILES
100
AcDbLine
 10
3709.568390652105
 20
370.9255261392374
 30
0.0
 11
3708.625885652105
 21
370.9255261392374
 31
0.0
  0
LINE
  5
2DDD
330
1E
100
AcDbEntity
  8
OILES
100
AcDbLine
 10
3709.635712652106
 20
370.8582051392374
 30
0.0
 11
3709.635712652106
 21
370.7572221392374
 31
0.0
  0
ARC
  5
2DDE
330
1E
100
AcDbEntity
  8
OILES
100
AcDbCircle
 10
3709.568390652105
 20
370.8582051392374
 30
0.0
 40
0.06732
100
AcDbArc
 50
0.0
 51
90.0
  0
ARC
  5
2DDF
330
1E
100
AcDbEntity
  8
OILES
100
AcDbCircle
 10
3707.279511652105
 20
371.4304241392373
 30
0.0
 40
1.683
100
AcDbArc
 50
90.0
 51
270.0
  0
LINE
  5
2DE0
330
1E
100
AcDbEntity
  8
OILES
100
AcDbLine
 10
3707.279511652105
 20
373.1134231392374
 30
0.0
 11
3708.093201652105
 21
373.1134231392374
 31
0.0
  0
LINE
  5
2DE1
330
1E
100
AcDbEntity
  8
OILES
100
AcDbLine
 10
3707.279511652105
 20
369.7474261392374
 30
0.0
 11
3708.093201652105
 21
369.7474261392374
 31
0.0
  0
LINE
  5
2DE2
330
1E
100
AcDbEntity
  8
OILES
100
AcDbLine
 10
3720.070313652105
 20
370.9591871392374
 30
0.0
 11
3722.258210652106
 21
370.9591871392374
 31
0.0
  0
LINE
  5
2DE3
330
1E
100
AcDbEntity
  8
OILES
100
AcDbLine
 10
3722.089905652105
 20
370.6225941392374
 30
0.0
 11
3720.911805652105
 21
370.6225941392374
 31
0.0
  0
ELLIPSE
  5
2DE4
330
1E
100
AcDbEntity
  8
OILES
100
AcDbEllipse
 10
3720.575196652106
 20
371.1611531392374
 30
0.0
 11
1.514699999999999
 21
0.0
 31
0.0
210
0.0
220
0.0
230
1.0
 40
0.7555559999999999
 41
1.570796326794897
 42
4.71238898038469
  0
ELLIPSE
  5
2DE5
330
1E
100
AcDbEntity
  8
OILES
100
AcDbEllipse
 10
3720.767273652105
 20
371.1611531392374
 30
0.0
 11
-1.514699999999999
 21
0.0
 31
0.0
210
0.0
220
0.0
230
1.0
 40
0.7555559999999999
 41
2.964189603073585
 42
4.71238898038469
  0
LINE
  5
2DE6
330
1E
100
AcDbEntity
  8
OILES
100
AcDbLine
 10
3720.575196652106
 20
372.3055921392374
 30
0.0
 11
3720.767273652105
 21
372.3055921392374
 31
0.0
  0
LINE
  5
2DE7
330
1E
100
AcDbEntity
  8
OILES
100
AcDbLine
 10
3721.248413652106
 20
371.3631031392373
 30
0.0
 11
3720.070313652105
 21
371.3631031392373
 31
0.0
  0
ARC
  5
2DE8
330
1E
100
AcDbEntity
  8
OILES
100
AcDbCircle
 10
3720.659363652106
 20
371.2719471392373
 30
0.0
 40
0.596062
100
AcDbArc
 50
8.796789999998953
 51
171.203210000001
  0
ELLIPSE
  5
2DE9
330
1E
100
AcDbEntity
  8
OILES
100
AcDbEllipse
 10
3721.248413652106
 20
370.6225941392374
 30
0.0
 11
0.8415
 21
0.0
 31
0.0
210
0.0
220
0.0
230
1.0
 40
0.72
 41
4.71238898038469
 42
6.283185307179585
  0
LINE
  5
2DEA
330
1E
100
AcDbEntity
  8
OILES
100
AcDbLine
 10
3720.575196652106
 20
370.0167131392374
 30
0.0
 11
3721.248413652106
 21
370.0167131392374
 31
0.0
  0
LINE
  5
2DEB
330
1E
100
AcDbEntity
  8
OILES
100
AcDbLine
 10
3720.070313652105
 20
370.9591871392374
 30
0.0
 11
3720.070313652105
 21
370.7908831392374
 31
0.0
  0
ARC
  5
2DEC
330
1E
100
AcDbEntity
  8
OILES
100
AcDbCircle
 10
3720.653199652105
 20
371.1629531392373
 30
0.0
 40
0.6915160000000001
100
AcDbArc
 50
212.5510919999962
 51
291.9605830000055
  0
LINE
  5
2DED
330
1E
100
AcDbEntity
  8
OILES
100
AcDbLine
 10
3720.911805652105
 20
370.6225941392374
 30
0.0
 11
3720.911805652105
 21
370.5216111392374
 31
0.0
  0
LINE
  5
2DEE
330
1E
100
AcDbEntity
  8
OILES
100
AcDbLine
 10
3705.646576652105
 20
371.8378801392374
 30
0.0
 11
3705.646576652105
 21
371.0229691392374
 31
0.0
  0
LINE
  5
2DEF
330
1E
100
AcDbEntity
  8
OILES
100
AcDbLine
 10
3705.745575652105
 20
372.1229141392374
 30
0.0
 11
3705.745575652105
 21
370.7379351392374
 31
0.0
  0
LINE
  5
2DF0
330
1E
100
AcDbEntity
  8
OILES
100
AcDbLine
 10
3705.844574652105
 20
372.3098951392374
 30
0.0
 11
3705.844574652105
 21
370.5509691392374
 31
0.0
  0
LINE
  5
2DF1
330
1E
100
AcDbEntity
  8
OILES
100
AcDbLine
 10
3705.943573652105
 20
372.4540301392374
 30
0.0
 11
3705.943573652105
 21
370.4068191392374
 31
0.0
  0
LINE
  5
2DF2
330
1E
100
AcDbEntity
  8
OILES
100
AcDbLine
 10
3706.042572652105
 20
372.5716901392374
 30
0.0
 11
3706.042572652105
 21
370.2891591392374
 31
0.0
  0
LINE
  5
2DF3
330
1E
100
AcDbEntity
  8
OILES
100
AcDbLine
 10
3706.141571652106
 20
372.6704301392373
 30
0.0
 11
3706.141571652106
 21
370.1904341392374
 31
0.0
  0
LINE
  5
2DF4
330
1E
100
AcDbEntity
  8
OILES
100
AcDbLine
 10
3706.240570652105
 20
372.7544751392374
 30
0.0
 11
3706.240570652105
 21
370.1063731392374
 31
0.0
  0
LINE
  5
2DF5
330
1E
100
AcDbEntity
  8
OILES
100
AcDbLine
 10
3706.339569652106
 20
372.8264971392373
 30
0.0
 11
3706.339569652106
 21
370.0343521392373
 31
0.0
  0
LINE
  5
2DF6
330
1E
100
AcDbEntity
  8
OILES
100
AcDbLine
 10
3706.438568652105
 20
372.8882801392373
 30
0.0
 11
3706.438568652105
 21
369.9725841392374
 31
0.0
  0
LINE
  5
2DF7
330
1E
100
AcDbEntity
  8
OILES
100
AcDbLine
 10
3706.537568652105
 20
372.9410601392374
 30
0.0
 11
3706.537568652105
 21
369.9197891392373
 31
0.0
  0
LINE
  5
2DF8
330
1E
100
AcDbEntity
  8
OILES
100
AcDbLine
 10
3706.636567652105
 20
372.9857831392374
 30
0.0
 11
3706.636567652105
 21
369.8750811392374
 31
0.0
  0
LINE
  5
2DF9
330
1E
100
AcDbEntity
  8
OILES
100
AcDbLine
 10
3706.735566652105
 20
373.0231061392374
 30
0.0
 11
3706.735566652105
 21
369.8377431392374
 31
0.0
  0
LINE
  5
2DFA
330
1E
100
AcDbEntity
  8
OILES
100
AcDbLine
 10
3706.834565652105
 20
373.0535481392374
 30
0.0
 11
3706.834565652105
 21
369.8073011392373
 31
0.0
  0
LINE
  5
2DFB
330
1E
100
AcDbEntity
  8
OILES
100
AcDbLine
 10
3706.933564652105
 20
373.0774891392373
 30
0.0
 11
3706.933564652105
 21
371.5602001392373
 31
0.0
  0
LINE
  5
2DFC
330
1E
100
AcDbEntity
  8
OILES
100
AcDbLine
 10
3706.933564652105
 20
371.3006481392373
 30
0.0
 11
3706.933564652105
 21
369.7833601392373
 31
0.0
  0
LINE
  5
2DFD
330
1E
100
AcDbEntity
  8
OILES
100
AcDbLine
 10
3707.032563652106
 20
373.0952191392374
 30
0.0
 11
3707.032563652106
 21
371.8645981392374
 31
0.0
  0
LINE
  5
2DFE
330
1E
100
AcDbEntity
  8
OILES
100
AcDbLine
 10
3707.032563652106
 20
370.9962511392374
 30
0.0
 11
3707.032563652106
 21
369.7656451392373
 31
0.0
  0
LINE
  5
2DFF
330
1E
100
AcDbEntity
  8
OILES
100
AcDbLine
 10
3707.131562652105
 20
373.1069081392373
 30
0.0
 11
3707.131562652105
 21
372.0140121392374
 31
0.0
  0
LINE
  5
2E00
330
1E
100
AcDbEntity
  8
OILES
100
AcDbLine
 10
3707.131562652105
 20
370.8468371392373
 30
0.0
 11
3707.131562652105
 21
369.7539411392373
 31
0.0
  0
LINE
  5
2E01
330
1E
100
AcDbEntity
  8
OILES
100
AcDbLine
 10
3707.230561652106
 20
373.1127211392374
 30
0.0
 11
3707.230561652106
 21
372.1181991392374
 31
0.0
  0
LINE
  5
2E02
330
1E
100
AcDbEntity
  8
OILES
100
AcDbLine
 10
3707.230561652106
 20
370.7426501392374
 30
0.0
 11
3707.230561652106
 21
369.7481431392374
 31
0.0
  0
LINE
  5
2E03
330
1E
100
AcDbEntity
  8
OILES
100
AcDbLine
 10
3707.329560652105
 20
373.1134231392374
 30
0.0
 11
3707.329560652105
 21
372.1958661392374
 31
0.0
  0
LINE
  5
2E04
330
1E
100
AcDbEntity
  8
OILES
100
AcDbLine
 10
3707.329560652105
 20
370.6649831392374
 30
0.0
 11
3707.329560652105
 21
369.7474261392374
 31
0.0
  0
LINE
  5
2E05
330
1E
100
AcDbEntity
  8
OILES
100
AcDbLine
 10
3707.428559652105
 20
373.1134231392374
 30
0.0
 11
3707.428559652105
 21
372.2545361392374
 31
0.0
  0
LINE
  5
2E06
330
1E
100
AcDbEntity
  8
OILES
100
AcDbLine
 10
3707.428559652105
 20
370.6063121392374
 30
0.0
 11
3707.428559652105
 21
369.7474261392374
 31
0.0
  0
LINE
  5
2E07
330
1E
100
AcDbEntity
  8
OILES
100
AcDbLine
 10
3707.527558652105
 20
373.1134231392374
 30
0.0
 11
3707.527558652105
 21
372.2980851392374
 31
0.0
  0
LINE
  5
2E08
330
1E
100
AcDbEntity
  8
OILES
100
AcDbLine
 10
3707.527558652105
 20
370.5627791392374
 30
0.0
 11
3707.527558652105
 21
369.7474261392374
 31
0.0
  0
LINE
  5
2E09
330
1E
100
AcDbEntity
  8
OILES
100
AcDbLine
 10
3707.626557652105
 20
373.1134231392374
 30
0.0
 11
3707.626557652105
 21
372.3286941392374
 31
0.0
  0
LINE
  5
2E0A
330
1E
100
AcDbEntity
  8
OILES
100
AcDbLine
 10
3707.626557652105
 20
370.5321701392374
 30
0.0
 11
3707.626557652105
 21
369.7474261392374
 31
0.0
  0
LINE
  5
2E0B
330
1E
100
AcDbEntity
  8
OILES
100
AcDbLine
 10
3707.725556652105
 20
373.1134231392374
 30
0.0
 11
3707.725556652105
 21
372.3476611392373
 31
0.0
  0
LINE
  5
2E0C
330
1E
100
AcDbEntity
  8
OILES
100
AcDbLine
 10
3707.725556652105
 20
370.5131881392373
 30
0.0
 11
3707.725556652105
 21
369.7474261392374
 31
0.0
  0
LINE
  5
2E0D
330
1E
100
AcDbEntity
  8
OILES
100
AcDbLine
 10
3707.824555652106
 20
373.1134231392374
 30
0.0
 11
3707.824555652106
 21
372.3557331392374
 31
0.0
  0
LINE
  5
2E0E
330
1E
100
AcDbEntity
  8
OILES
100
AcDbLine
 10
3707.824555652106
 20
370.5051311392374
 30
0.0
 11
3707.824555652106
 21
369.7474261392374
 31
0.0
  0
LINE
  5
2E0F
330
1E
100
AcDbEntity
  8
OILES
100
AcDbLine
 10
3707.923554652105
 20
373.1134231392374
 30
0.0
 11
3707.923554652105
 21
372.3531541392373
 31
0.0
  0
LINE
  5
2E10
330
1E
100
AcDbEntity
  8
OILES
100
AcDbLine
 10
3707.923554652105
 20
370.5076951392373
 30
0.0
 11
3707.923554652105
 21
369.7474261392374
 31
0.0
  0
LINE
  5
2E11
330
1E
100
AcDbEntity
  8
OILES
100
AcDbLine
 10
3708.022553652106
 20
373.1134231392374
 30
0.0
 11
3708.022553652106
 21
372.3398631392374
 31
0.0
  0
LINE
  5
2E12
330
1E
100
AcDbEntity
  8
OILES
100
AcDbLine
 10
3708.022553652106
 20
370.5209851392374
 30
0.0
 11
3708.022553652106
 21
369.7474261392374
 31
0.0
  0
LINE
  5
2E13
330
1E
100
AcDbEntity
  8
OILES
100
AcDbLine
 10
3708.121582652105
 20
373.1131941392373
 30
0.0
 11
3708.121582652105
 21
372.3153731392374
 31
0.0
  0
LINE
  5
2E14
330
1E
100
AcDbEntity
  8
OILES
100
AcDbLine
 10
3708.121582652105
 20
370.5454911392374
 30
0.0
 11
3708.121582652105
 21
369.7476701392373
 31
0.0
  0
LINE
  5
2E15
330
1E
100
AcDbEntity
  8
OILES
100
AcDbLine
 10
3708.220581652105
 20
373.1086011392374
 30
0.0
 11
3708.220581652105
 21
372.2786911392374
 31
0.0
  0
LINE
  5
2E16
330
1E
100
AcDbEntity
  8
OILES
100
AcDbLine
 10
3708.220581652105
 20
370.5821581392374
 30
0.0
 11
3708.220581652105
 21
369.7522481392373
 31
0.0
  0
LINE
  5
2E17
330
1E
100
AcDbEntity
  8
OILES
100
AcDbLine
 10
3708.319580652105
 20
373.0981341392373
 30
0.0
 11
3708.319580652105
 21
372.2281841392373
 31
0.0
  0
LINE
  5
2E18
330
1E
100
AcDbEntity
  8
OILES
100
AcDbLine
 10
3708.319580652105
 20
370.6326801392374
 30
0.0
 11
3708.319580652105
 21
369.7627151392373
 31
0.0
  0
LINE
  5
2E19
330
1E
100
AcDbEntity
  8
OILES
100
AcDbLine
 10
3708.418579652106
 20
373.0816851392374
 30
0.0
 11
3708.418579652106
 21
372.1609391392374
 31
0.0
  0
LINE
  5
2E1A
330
1E
100
AcDbEntity
  8
OILES
100
AcDbLine
 10
3708.418579652106
 20
370.6999251392373
 30
0.0
 11
3708.418579652106
 21
369.7791791392374
 31
0.0
  0
LINE
  5
2E1B
330
1E
100
AcDbEntity
  8
OILES
100
AcDbLine
 10
3708.517578652105
 20
373.0590411392374
 30
0.0
 11
3708.517578652105
 21
372.0717361392374
 31
0.0
  0
LINE
  5
2E1C
330
1E
100
AcDbEntity
  8
OILES
100
AcDbLine
 10
3708.517578652105
 20
370.7891131392374
 30
0.0
 11
3708.517578652105
 21
369.8018081392374
 31
0.0
  0
LINE
  5
2E1D
330
1E
100
AcDbEntity
  8
OILES
100
AcDbLine
 10
3708.616578652105
 20
373.0299881392374
 30
0.0
 11
3708.616578652105
 21
371.9493911392374
 31
0.0
  0
LINE
  5
2E1E
330
1E
100
AcDbEntity
  8
OILES
100
AcDbLine
 10
3708.616578652105
 20
370.9114731392374
 30
0.0
 11
3708.616578652105
 21
369.8308761392374
 31
0.0
  0
LINE
  5
2E1F
330
1E
100
AcDbEntity
  8
OILES
100
AcDbLine
 10
3708.715577652105
 20
372.9941301392374
 30
0.0
 11
3708.715577652105
 21
371.9502761392373
 31
0.0
  0
LINE
  5
2E20
330
1E
100
AcDbEntity
  8
OILES
100
AcDbLine
 10
3708.715577652105
 20
370.9255261392374
 30
0.0
 11
3708.715577652105
 21
369.8667341392373
 31
0.0
  0
LINE
  5
2E21
330
1E
100
AcDbEntity
  8
OILES
100
AcDbLine
 10
3708.814576652105
 20
372.9509931392374
 30
0.0
 11
3708.814576652105
 21
371.9667711392374
 31
0.0
  0
LINE
  5
2E22
330
1E
100
AcDbEntity
  8
OILES
100
AcDbLine
 10
3708.814576652105
 20
370.9255261392374
 30
0.0
 11
3708.814576652105
 21
369.9098561392374
 31
0.0
  0
LINE
  5
2E23
330
1E
100
AcDbEntity
  8
OILES
100
AcDbLine
 10
3708.913575652105
 20
372.8999531392374
 30
0.0
 11
3708.913575652105
 21
371.9832661392374
 31
0.0
  0
LINE
  5
2E24
330
1E
100
AcDbEntity
  8
OILES
100
AcDbLine
 10
3708.913575652105
 20
370.9255261392374
 30
0.0
 11
3708.913575652105
 21
369.9609111392373
 31
0.0
  0
LINE
  5
2E25
330
1E
100
AcDbEntity
  8
OILES
100
AcDbLine
 10
3709.012574652105
 20
372.8401231392374
 30
0.0
 11
3709.012574652105
 21
371.9997761392374
 31
0.0
  0
LINE
  5
2E26
330
1E
100
AcDbEntity
  8
OILES
100
AcDbLine
 10
3709.012574652105
 20
370.9255261392374
 30
0.0
 11
3709.012574652105
 21
370.0207261392374
 31
0.0
  0
LINE
  5
2E27
330
1E
100
AcDbEntity
  8
OILES
100
AcDbLine
 10
3709.111573652105
 20
372.7703601392374
 30
0.0
 11
3709.111573652105
 21
372.0162701392374
 31
0.0
  0
LINE
  5
2E28
330
1E
100
AcDbEntity
  8
OILES
100
AcDbLine
 10
3709.111573652105
 20
370.9255261392374
 30
0.0
 11
3709.111573652105
 21
370.0904891392373
 31
0.0
  0
LINE
  5
2E29
330
1E
100
AcDbEntity
  8
OILES
100
AcDbLine
 10
3709.210572652105
 20
372.6890001392373
 30
0.0
 11
3709.210572652105
 21
372.0327651392374
 31
0.0
  0
LINE
  5
2E2A
330
1E
100
AcDbEntity
  8
OILES
100
AcDbLine
 10
3709.210572652105
 20
370.9255261392374
 30
0.0
 11
3709.210572652105
 21
370.1718641392373
 31
0.0
  0
LINE
  5
2E2B
330
1E
100
AcDbEntity
  8
OILES
100
AcDbLine
 10
3709.309571652106
 20
372.5935871392374
 30
0.0
 11
3709.309571652106
 21
372.0492751392374
 31
0.0
  0
LINE
  5
2E2C
330
1E
100
AcDbEntity
  8
OILES
100
AcDbLine
 10
3709.309571652106
 20
370.9255261392374
 30
0.0
 11
3709.309571652106
 21
370.2672621392374
 31
0.0
  0
LINE
  5
2E2D
330
1E
100
AcDbEntity
  8
OILES
100
AcDbLine
 10
3709.408570652105
 20
372.4803361392373
 30
0.0
 11
3709.408570652105
 21
372.0657701392374
 31
0.0
  0
LINE
  5
2E2E
330
1E
100
AcDbEntity
  8
OILES
100
AcDbLine
 10
3709.408570652105
 20
370.9255261392374
 30
0.0
 11
3709.408570652105
 21
370.3805131392373
 31
0.0
  0
LINE
  5
2E2F
330
1E
100
AcDbEntity
  8
OILES
100
AcDbLine
 10
3709.507569652105
 20
372.3426101392373
 30
0.0
 11
3709.507569652105
 21
372.0822801392373
 31
0.0
  0
LINE
  5
2E30
330
1E
100
AcDbEntity
  8
OILES
100
AcDbLine
 10
3709.507569652105
 20
370.9255261392374
 30
0.0
 11
3709.507569652105
 21
370.5182541392373
 31
0.0
  0
LINE
  5
2E31
330
1E
100
AcDbEntity
  8
OILES
100
AcDbLine
 10
3709.606568652105
 20
372.1667831392374
 30
0.0
 11
3709.606568652105
 21
372.0987751392373
 31
0.0
  0
LINE
  5
2E32
330
1E
100
AcDbEntity
  8
OILES
100
AcDbLine
 10
3709.606568652105
 20
370.9136551392373
 30
0.0
 11
3709.606568652105
 21
370.6940661392374
 31
0.0
  0
LINE
  5
2E33
330
1E
100
AcDbEntity
  8
OILES
100
AcDbLine
 10
3710.398560652105
 20
371.6053211392374
 30
0.0
 11
3710.398560652105
 21
370.7169841392373
 31
0.0
  0
LINE
  5
2E34
330
1E
100
AcDbEntity
  8
OILES
100
AcDbLine
 10
3710.497559652105
 20
371.7907761392373
 30
0.0
 11
3710.497559652105
 21
370.5315291392374
 31
0.0
  0
LINE
  5
2E35
330
1E
100
AcDbEntity
  8
OILES
100
AcDbLine
 10
3710.596558652105
 20
371.9200641392374
 30
0.0
 11
3710.596558652105
 21
370.4022261392374
 31
0.0
  0
LINE
  5
2E36
330
1E
100
AcDbEntity
  8
OILES
100
AcDbLine
 10
3710.695557652105
 20
372.0189861392374
 30
0.0
 11
3710.695557652105
 21
370.3033031392374
 31
0.0
  0
LINE
  5
2E37
330
1E
100
AcDbEntity
  8
OILES
100
AcDbLine
 10
3710.794556652105
 20
372.0972181392374
 30
0.0
 11
3710.794556652105
 21
370.2250721392374
 31
0.0
  0
LINE
  5
2E38
330
1E
100
AcDbEntity
  8
OILES
100
AcDbLine
 10
3710.893555652106
 20
372.1596271392374
 30
0.0
 11
3710.893555652106
 21
370.1626631392374
 31
0.0
  0
LINE
  5
2E39
330
1E
100
AcDbEntity
  8
OILES
100
AcDbLine
 10
3710.992554652105
 20
372.2090501392373
 30
0.0
 11
3710.992554652105
 21
370.1132551392374
 31
0.0
  0
LINE
  5
2E3A
330
1E
100
AcDbEntity
  8
OILES
100
AcDbLine
 10
3711.091553652106
 20
372.2472431392374
 30
0.0
 11
3711.091553652106
 21
370.0750471392374
 31
0.0
  0
LINE
  5
2E3B
330
1E
100
AcDbEntity
  8
OILES
100
AcDbLine
 10
3711.190583652105
 20
372.2753951392374
 30
0.0
 11
3711.190583652105
 21
370.0469101392374
 31
0.0
  0
LINE
  5
2E3C
330
1E
100
AcDbEntity
  8
OILES
100
AcDbLine
 10
3711.289582652105
 20
372.2942241392374
 30
0.0
 11
3711.289582652105
 21
370.0280651392374
 31
0.0
  0
LINE
  5
2E3D
330
1E
100
AcDbEntity
  8
OILES
100
AcDbLine
 10
3711.388581652105
 20
372.3042041392373
 30
0.0
 11
3711.388581652105
 21
371.4174091392373
 31
0.0
  0
LINE
  5
2E3E
330
1E
100
AcDbEntity
  8
OILES
100
AcDbLine
 10
3711.388581652105
 20
370.9048811392374
 30
0.0
 11
3711.388581652105
 21
370.0180861392374
 31
0.0
  0
LINE
  5
2E3F
330
1E
100
AcDbEntity
  8
OILES
100
AcDbLine
 10
3711.487580652105
 20
372.3055771392373
 30
0.0
 11
3711.487580652105
 21
371.5379841392374
 31
0.0
  0
LINE
  5
2E40
330
1E
100
AcDbEntity
  8
OILES
100
AcDbLine
 10
3711.487580652105
 20
370.7843061392373
 30
0.0
 11
3711.487580652105
 21
370.0167281392373
 31
0.0
  0
LINE
  5
2E41
330
1E
100
AcDbEntity
  8
OILES
100
AcDbLine
 10
3711.586579652105
 20
372.2983441392374
 30
0.0
 11
3711.586579652105
 21
371.6069531392374
 31
0.0
  0
LINE
  5
2E42
330
1E
100
AcDbEntity
  8
OILES
100
AcDbLine
 10
3711.586579652105
 20
370.7153521392373
 30
0.0
 11
3711.586579652105
 21
370.0239461392373
 31
0.0
  0
LINE
  5
2E43
330
1E
100
AcDbEntity
  8
OILES
100
AcDbLine
 10
3711.685578652105
 20
372.2823681392374
 30
0.0
 11
3711.685578652105
 21
371.6468091392373
 31
0.0
  0
LINE
  5
2E44
330
1E
100
AcDbEntity
  8
OILES
100
AcDbLine
 10
3711.685578652105
 20
370.6754811392374
 30
0.0
 11
3711.685578652105
 21
370.0399211392374
 31
0.0
  0
LINE
  5
2E45
330
1E
100
AcDbEntity
  8
OILES
100
AcDbLine
 10
3711.784577652105
 20
372.2572521392374
 30
0.0
 11
3711.784577652105
 21
371.6645401392374
 31
0.0
  0
LINE
  5
2E46
330
1E
100
AcDbEntity
  8
OILES
100
AcDbLine
 10
3711.784577652105
 20
370.6577651392374
 30
0.0
 11
3711.784577652105
 21
370.0650371392374
 31
0.0
  0
LINE
  5
2E47
330
1E
100
AcDbEntity
  8
OILES
100
AcDbLine
 10
3711.883576652105
 20
372.2223561392374
 30
0.0
 11
3711.883576652105
 21
371.6624801392374
 31
0.0
  0
LINE
  5
2E48
330
1E
100
AcDbEntity
  8
OILES
100
AcDbLine
 10
3711.883576652105
 20
370.6598251392374
 30
0.0
 11
3711.883576652105
 21
370.0999341392373
 31
0.0
  0
LINE
  5
2E49
330
1E
100
AcDbEntity
  8
OILES
100
AcDbLine
 10
3711.982575652105
 20
372.1810191392374
 30
0.0
 11
3711.982575652105
 21
371.6403701392374
 31
0.0
  0
LINE
  5
2E4A
330
1E
100
AcDbEntity
  8
OILES
100
AcDbLine
 10
3711.982575652105
 20
370.6819201392374
 30
0.0
 11
3711.982575652105
 21
370.1412701392373
 31
0.0
  0
LINE
  5
2E4B
330
1E
100
AcDbEntity
  8
OILES
100
AcDbLine
 10
3712.081574652105
 20
372.1396071392373
 30
0.0
 11
3712.081574652105
 21
371.5951741392374
 31
0.0
  0
LINE
  5
2E4C
330
1E
100
AcDbEntity
  8
OILES
100
AcDbLine
 10
3712.081574652105
 20
370.7271321392374
 30
0.0
 11
3712.081574652105
 21
370.1826831392374
 31
0.0
  0
LINE
  5
2E4D
330
1E
100
AcDbEntity
  8
OILES
100
AcDbLine
 10
3712.180573652105
 20
372.0981951392374
 30
0.0
 11
3712.180573652105
 21
371.5182231392374
 31
0.0
  0
LINE
  5
2E4E
330
1E
100
AcDbEntity
  8
OILES
100
AcDbLine
 10
3712.180573652105
 20
370.8040821392374
 30
0.0
 11
3712.180573652105
 21
370.2241101392374
 31
0.0
  0
LINE
  5
2E4F
330
1E
100
AcDbEntity
  8
OILES
100
AcDbLine
 10
3712.279572652105
 20
372.0567821392374
 30
0.0
 11
3712.279572652105
 21
371.3779801392373
 31
0.0
  0
LINE
  5
2E50
330
1E
100
AcDbEntity
  8
OILES
100
AcDbLine
 10
3712.279572652105
 20
370.9443101392374
 30
0.0
 11
3712.279572652105
 21
370.2655231392374
 31
0.0
  0
LINE
  5
2E51
330
1E
100
AcDbEntity
  8
OILES
100
AcDbLine
 10
3712.378571652106
 20
372.3055921392374
 30
0.0
 11
3712.378571652106
 21
370.0167131392374
 31
0.0
  0
LINE
  5
2E52
330
1E
100
AcDbEntity
  8
OILES
100
AcDbLine
 10
3712.477570652105
 20
372.3055921392374
 30
0.0
 11
3712.477570652105
 21
370.0167131392374
 31
0.0
  0
LINE
  5
2E53
330
1E
100
AcDbEntity
  8
OILES
100
AcDbLine
 10
3712.576569652105
 20
372.3055921392374
 30
0.0
 11
3712.576569652105
 21
370.0167131392374
 31
0.0
  0
LINE
  5
2E54
330
1E
100
AcDbEntity
  8
OILES
100
AcDbLine
 10
3712.675568652105
 20
372.3055921392374
 30
0.0
 11
3712.675568652105
 21
370.0167131392374
 31
0.0
  0
LINE
  5
2E55
330
1E
100
AcDbEntity
  8
OILES
100
AcDbLine
 10
3712.774567652105
 20
372.3055921392374
 30
0.0
 11
3712.774567652105
 21
370.0167131392374
 31
0.0
  0
LINE
  5
2E56
330
1E
100
AcDbEntity
  8
OILES
100
AcDbLine
 10
3712.873566652105
 20
372.3055921392374
 30
0.0
 11
3712.873566652105
 21
370.0167131392374
 31
0.0
  0
LINE
  5
2E57
330
1E
100
AcDbEntity
  8
OILES
100
AcDbLine
 10
3712.972565652105
 20
372.3055921392374
 30
0.0
 11
3712.972565652105
 21
370.0167131392374
 31
0.0
  0
LINE
  5
2E58
330
1E
100
AcDbEntity
  8
OILES
100
AcDbLine
 10
3713.071564652105
 20
372.3055921392374
 30
0.0
 11
3713.071564652105
 21
370.0167131392374
 31
0.0
  0
LINE
  5
2E59
330
1E
100
AcDbEntity
  8
OILES
100
AcDbLine
 10
3713.170563652106
 20
372.3055921392374
 30
0.0
 11
3713.170563652106
 21
370.0167131392374
 31
0.0
  0
LINE
  5
2E5A
330
1E
100
AcDbEntity
  8
OILES
100
AcDbLine
 10
3713.269562652105
 20
372.3055921392374
 30
0.0
 11
3713.269562652105
 21
370.0167131392374
 31
0.0
  0
LINE
  5
2E5B
330
1E
100
AcDbEntity
  8
OILES
100
AcDbLine
 10
3714.061554652105
 20
372.8778121392374
 30
0.0
 11
3714.061554652105
 21
370.0167131392374
 31
0.0
  0
LINE
  5
2E5C
330
1E
100
AcDbEntity
  8
OILES
100
AcDbLine
 10
3714.160553652106
 20
372.8778121392374
 30
0.0
 11
3714.160553652106
 21
370.0167131392374
 31
0.0
  0
LINE
  5
2E5D
330
1E
100
AcDbEntity
  8
OILES
100
AcDbLine
 10
3714.259583652105
 20
372.8778121392374
 30
0.0
 11
3714.259583652105
 21
370.0167131392374
 31
0.0
  0
LINE
  5
2E5E
330
1E
100
AcDbEntity
  8
OILES
100
AcDbLine
 10
3714.358582652105
 20
372.8778121392374
 30
0.0
 11
3714.358582652105
 21
370.0167131392374
 31
0.0
  0
LINE
  5
2E5F
330
1E
100
AcDbEntity
  8
OILES
100
AcDbLine
 10
3714.457581652105
 20
372.8778121392374
 30
0.0
 11
3714.457581652105
 21
370.0167131392374
 31
0.0
  0
LINE
  5
2E60
330
1E
100
AcDbEntity
  8
OILES
100
AcDbLine
 10
3714.556580652105
 20
372.8778121392374
 30
0.0
 11
3714.556580652105
 21
370.0167131392374
 31
0.0
  0
LINE
  5
2E61
330
1E
100
AcDbEntity
  8
OILES
100
AcDbLine
 10
3714.655579652105
 20
372.8778121392374
 30
0.0
 11
3714.655579652105
 21
370.0167131392374
 31
0.0
  0
LINE
  5
2E62
330
1E
100
AcDbEntity
  8
OILES
100
AcDbLine
 10
3725.545563652105
 20
372.3055921392374
 30
0.0
 11
3725.545563652105
 21
372.2230271392374
 31
0.0
  0
LINE
  5
2E63
330
1E
100
AcDbEntity
  8
OILES
100
AcDbLine
 10
3714.754578652105
 20
372.8778121392374
 30
0.0
 11
3714.754578652105
 21
370.0167131392374
 31
0.0
  0
LINE
  5
2E64
330
1E
100
AcDbEntity
  8
OILES
100
AcDbLine
 10
3725.545563652105
 20
370.1058241392374
 30
0.0
 11
3725.545563652105
 21
370.0167131392374
 31
0.0
  0
LINE
  5
2E65
330
1E
100
AcDbEntity
  8
OILES
100
AcDbLine
 10
3714.853577652105
 20
372.8778121392374
 30
0.0
 11
3714.853577652105
 21
370.0167131392374
 31
0.0
  0
LINE
  5
2E66
330
1E
100
AcDbEntity
  8
OILES
100
AcDbLine
 10
3714.952576652105
 20
372.8778121392374
 30
0.0
 11
3714.952576652105
 21
370.0167131392374
 31
0.0
  0
LINE
  5
2E67
330
1E
100
AcDbEntity
  8
OILES
100
AcDbLine
 10
3715.051575652105
 20
372.0489701392373
 30
0.0
 11
3715.051575652105
 21
371.3333331392373
 31
0.0
  0
LINE
  5
2E68
330
1E
100
AcDbEntity
  8
OILES
100
AcDbLine
 10
3715.051575652105
 20
370.9889571392374
 30
0.0
 11
3715.051575652105
 21
370.2733201392373
 31
0.0
  0
LINE
  5
2E69
330
1E
100
AcDbEntity
  8
OILES
100
AcDbLine
 10
3715.150574652105
 20
372.0903821392373
 30
0.0
 11
3715.150574652105
 21
371.4985241392374
 31
0.0
  0
LINE
  5
2E6A
330
1E
100
AcDbEntity
  8
OILES
100
AcDbLine
 10
3715.150574652105
 20
370.8237651392374
 30
0.0
 11
3715.150574652105
 21
370.2319081392374
 31
0.0
  0
LINE
  5
2E6B
330
1E
100
AcDbEntity
  8
OILES
100
AcDbLine
 10
3715.249573652105
 20
372.1317951392373
 30
0.0
 11
3715.249573652105
 21
371.5835161392373
 31
0.0
  0
LINE
  5
2E6C
330
1E
100
AcDbEntity
  8
OILES
100
AcDbLine
 10
3715.249573652105
 20
370.7387741392374
 30
0.0
 11
3715.249573652105
 21
370.1904951392373
 31
0.0
  0
LINE
  5
2E6D
330
1E
100
AcDbEntity
  8
OILES
100
AcDbLine
 10
3715.348572652105
 20
372.1732071392374
 30
0.0
 11
3715.348572652105
 21
371.6337631392374
 31
0.0
  0
LINE
  5
2E6E
330
1E
100
AcDbEntity
  8
OILES
100
AcDbLine
 10
3715.348572652105
 20
370.6885271392374
 30
0.0
 11
3715.348572652105
 21
370.1490831392373
 31
0.0
  0
LINE
  5
2E6F
330
1E
100
AcDbEntity
  8
OILES
100
AcDbLine
 10
3715.447571652106
 20
372.2146351392373
 30
0.0
 11
3715.447571652106
 21
371.6598861392374
 31
0.0
  0
LINE
  5
2E70
330
1E
100
AcDbEntity
  8
OILES
100
AcDbLine
 10
3715.447571652106
 20
370.6624041392374
 30
0.0
 11
3715.447571652106
 21
370.1076701392374
 31
0.0
  0
LINE
  5
2E71
330
1E
100
AcDbEntity
  8
OILES
100
AcDbLine
 10
3715.546570652105
 20
372.2514541392373
 30
0.0
 11
3715.546570652105
 21
371.6656391392373
 31
0.0
  0
LINE
  5
2E72
330
1E
100
AcDbEntity
  8
OILES
100
AcDbLine
 10
3715.546570652105
 20
370.6566511392373
 30
0.0
 11
3715.546570652105
 21
370.0708511392373
 31
0.0
  0
LINE
  5
2E73
330
1E
100
AcDbEntity
  8
OILES
100
AcDbLine
 10
3715.645569652105
 20
372.2783551392374
 30
0.0
 11
3715.645569652105
 21
371.6517381392374
 31
0.0
  0
LINE
  5
2E74
330
1E
100
AcDbEntity
  8
OILES
100
AcDbLine
 10
3715.645569652105
 20
370.6705671392374
 30
0.0
 11
3715.645569652105
 21
370.0439501392374
 31
0.0
  0
LINE
  5
2E75
330
1E
100
AcDbEntity
  8
OILES
100
AcDbLine
 10
3715.744568652105
 20
372.2960101392374
 30
0.0
 11
3715.744568652105
 21
371.6163831392374
 31
0.0
  0
LINE
  5
2E76
330
1E
100
AcDbEntity
  8
OILES
100
AcDbLine
 10
3715.744568652105
 20
370.7059071392373
 30
0.0
 11
3715.744568652105
 21
370.0262801392374
 31
0.0
  0
LINE
  5
2E77
330
1E
100
AcDbEntity
  8
OILES
100
AcDbLine
 10
3715.843567652105
 20
372.3048751392374
 30
0.0
 11
3715.843567652105
 21
371.5538371392374
 31
0.0
  0
LINE
  5
2E78
330
1E
100
AcDbEntity
  8
OILES
100
AcDbLine
 10
3715.843567652105
 20
370.7684681392374
 30
0.0
 11
3715.843567652105
 21
370.0174301392374
 31
0.0
  0
LINE
  5
2E79
330
1E
100
AcDbEntity
  8
OILES
100
AcDbLine
 10
3715.942566652105
 20
372.3051191392374
 30
0.0
 11
3715.942566652105
 21
371.4467361392374
 31
0.0
  0
LINE
  5
2E7A
330
1E
100
AcDbEntity
  8
OILES
100
AcDbLine
 10
3715.942566652105
 20
370.8755541392374
 30
0.0
 11
3715.942566652105
 21
370.0171711392373
 31
0.0
  0
LINE
  5
2E7B
330
1E
100
AcDbEntity
  8
OILES
100
AcDbLine
 10
3716.041565652105
 20
372.2967731392373
 30
0.0
 11
3716.041565652105
 21
370.0255171392374
 31
0.0
  0
LINE
  5
2E7C
330
1E
100
AcDbEntity
  8
OILES
100
AcDbLine
 10
3716.140564652106
 20
372.2796371392373
 30
0.0
 11
3716.140564652106
 21
370.0426531392374
 31
0.0
  0
LINE
  5
2E7D
330
1E
100
AcDbEntity
  8
OILES
100
AcDbLine
 10
3716.239563652106
 20
372.2533001392374
 30
0.0
 11
3716.239563652106
 21
370.0690051392373
 31
0.0
  0
LINE
  5
2E7E
330
1E
100
AcDbEntity
  8
OILES
100
AcDbLine
 10
3716.338562652105
 20
372.2170611392373
 30
0.0
 11
3716.338562652105
 21
370.1052291392374
 31
0.0
  0
LINE
  5
2E7F
330
1E
100
AcDbEntity
  8
OILES
100
AcDbLine
 10
3716.437561652105
 20
372.1698651392373
 30
0.0
 11
3716.437561652105
 21
370.1524251392374
 31
0.0
  0
LINE
  5
2E80
330
1E
100
AcDbEntity
  8
OILES
100
AcDbLine
 10
3716.536560652105
 20
372.1100971392374
 30
0.0
 11
3716.536560652105
 21
370.2122081392374
 31
0.0
  0
LINE
  5
2E81
330
1E
100
AcDbEntity
  8
OILES
100
AcDbLine
 10
3716.635559652105
 20
372.0351301392374
 30
0.0
 11
3716.635559652105
 21
370.2871601392374
 31
0.0
  0
LINE
  5
2E82
330
1E
100
AcDbEntity
  8
OILES
100
AcDbLine
 10
3716.734558652105
 20
371.9406481392373
 30
0.0
 11
3716.734558652105
 21
370.3816571392374
 31
0.0
  0
LINE
  5
2E83
330
1E
100
AcDbEntity
  8
OILES
100
AcDbLine
 10
3716.833557652105
 20
371.8182421392373
 30
0.0
 11
3716.833557652105
 21
370.5040481392373
 31
0.0
  0
LINE
  5
2E84
330
1E
100
AcDbEntity
  8
OILES
100
AcDbLine
 10
3716.932557652106
 20
371.6472821392374
 30
0.0
 11
3716.932557652106
 21
370.6750081392374
 31
0.0
  0
LINE
  5
2E85
330
1E
100
AcDbEntity
  8
OILES
100
AcDbLine
 10
3717.031556652105
 20
371.3070271392373
 30
0.0
 11
3717.031556652105
 21
371.0152631392373
 31
0.0
  0
LINE
  5
2E86
330
1E
100
AcDbEntity
  8
OILES
100
AcDbLine
 10
3717.625580652105
 20
372.8778121392374
 30
0.0
 11
3717.625580652105
 21
370.0167131392374
 31
0.0
  0
LINE
  5
2E87
330
1E
100
AcDbEntity
  8
OILES
100
AcDbLine
 10
3717.724579652105
 20
372.8778121392374
 30
0.0
 11
3717.724579652105
 21
370.0167131392374
 31
0.0
  0
LINE
  5
2E88
330
1E
100
AcDbEntity
  8
OILES
100
AcDbLine
 10
3717.823578652105
 20
372.8778121392374
 30
0.0
 11
3717.823578652105
 21
370.0167131392374
 31
0.0
  0
LINE
  5
2E89
330
1E
100
AcDbEntity
  8
OILES
100
AcDbLine
 10
3717.922577652105
 20
372.8778121392374
 30
0.0
 11
3717.922577652105
 21
370.0167131392374
 31
0.0
  0
LINE
  5
2E8A
330
1E
100
AcDbEntity
  8
OILES
100
AcDbLine
 10
3718.021576652105
 20
372.8778121392374
 30
0.0
 11
3718.021576652105
 21
370.0167131392374
 31
0.0
  0
LINE
  5
2E8B
330
1E
100
AcDbEntity
  8
OILES
100
AcDbLine
 10
3718.120575652105
 20
372.8778121392374
 30
0.0
 11
3718.120575652105
 21
370.0167131392374
 31
0.0
  0
LINE
  5
2E8C
330
1E
100
AcDbEntity
  8
OILES
100
AcDbLine
 10
3718.219574652105
 20
372.8778121392374
 30
0.0
 11
3718.219574652105
 21
370.0167131392374
 31
0.0
  0
LINE
  5
2E8D
330
1E
100
AcDbEntity
  8
OILES
100
AcDbLine
 10
3718.318573652105
 20
372.8778121392374
 30
0.0
 11
3718.318573652105
 21
370.0167131392374
 31
0.0
  0
LINE
  5
2E8E
330
1E
100
AcDbEntity
  8
OILES
100
AcDbLine
 10
3718.417572652106
 20
372.8778121392374
 30
0.0
 11
3718.417572652106
 21
370.0167131392374
 31
0.0
  0
LINE
  5
2E8F
330
1E
100
AcDbEntity
  8
OILES
100
AcDbLine
 10
3718.516571652105
 20
372.8778121392374
 30
0.0
 11
3718.516571652105
 21
370.0167131392374
 31
0.0
  0
LINE
  5
2E90
330
1E
100
AcDbEntity
  8
OILES
100
AcDbLine
 10
3722.674561652105
 20
372.3055921392374
 30
0.0
 11
3722.674561652105
 21
372.2151841392374
 31
0.0
  0
LINE
  5
2E91
330
1E
100
AcDbEntity
  8
OILES
100
AcDbLine
 10
3722.674561652105
 20
370.2687581392374
 30
0.0
 11
3722.674561652105
 21
370.1850021392373
 31
0.0
  0
LINE
  5
2E92
330
1E
100
AcDbEntity
  8
OILES
100
AcDbLine
 10
3722.773560652105
 20
372.3055921392374
 30
0.0
 11
3722.773560652105
 21
372.1029861392374
 31
0.0
  0
LINE
  5
2E93
330
1E
100
AcDbEntity
  8
OILES
100
AcDbLine
 10
3722.773560652105
 20
370.3727161392373
 30
0.0
 11
3722.773560652105
 21
370.1850021392373
 31
0.0
  0
LINE
  5
2E94
330
1E
100
AcDbEntity
  8
OILES
100
AcDbLine
 10
3722.872559652105
 20
372.3055921392374
 30
0.0
 11
3722.872559652105
 21
371.9907881392373
 31
0.0
  0
LINE
  5
2E95
330
1E
100
AcDbEntity
  8
OILES
100
AcDbLine
 10
3722.872559652105
 20
370.4766591392374
 30
0.0
 11
3722.872559652105
 21
370.1850021392373
 31
0.0
  0
LINE
  5
2E96
330
1E
100
AcDbEntity
  8
OILES
100
AcDbLine
 10
3722.971558652105
 20
372.3055921392374
 30
0.0
 11
3722.971558652105
 21
371.8785901392374
 31
0.0
  0
LINE
  5
2E97
330
1E
100
AcDbEntity
  8
OILES
100
AcDbLine
 10
3722.971558652105
 20
370.5806171392374
 30
0.0
 11
3722.971558652105
 21
370.1850021392373
 31
0.0
  0
LINE
  5
2E98
330
1E
100
AcDbEntity
  8
OILES
100
AcDbLine
 10
3723.070557652106
 20
372.3055921392374
 30
0.0
 11
3723.070557652106
 21
371.7663771392374
 31
0.0
  0
LINE
  5
2E99
330
1E
100
AcDbEntity
  8
OILES
100
AcDbLine
 10
3723.070557652106
 20
370.6845601392374
 30
0.0
 11
3723.070557652106
 21
370.1850021392373
 31
0.0
  0
LINE
  5
2E9A
330
1E
100
AcDbEntity
  8
OILES
100
AcDbLine
 10
3723.169556652105
 20
372.3055921392374
 30
0.0
 11
3723.169556652105
 21
371.6541791392374
 31
0.0
  0
LINE
  5
2E9B
330
1E
100
AcDbEntity
  8
OILES
100
AcDbLine
 10
3723.169556652105
 20
370.7885181392374
 30
0.0
 11
3723.169556652105
 21
370.1850021392373
 31
0.0
  0
LINE
  5
2E9C
330
1E
100
AcDbEntity
  8
OILES
100
AcDbLine
 10
3723.268555652106
 20
372.3055921392374
 30
0.0
 11
3723.268555652106
 21
371.5419811392373
 31
0.0
  0
LINE
  5
2E9D
330
1E
100
AcDbEntity
  8
OILES
100
AcDbLine
 10
3723.268555652106
 20
370.8924611392374
 30
0.0
 11
3723.268555652106
 21
370.1850021392373
 31
0.0
  0
LINE
  5
2E9E
330
1E
100
AcDbEntity
  8
OILES
100
AcDbLine
 10
3723.367554652105
 20
372.3055921392374
 30
0.0
 11
3723.367554652105
 21
371.4297841392374
 31
0.0
  0
LINE
  5
2E9F
330
1E
100
AcDbEntity
  8
OILES
100
AcDbLine
 10
3723.367554652105
 20
370.9964191392373
 30
0.0
 11
3723.367554652105
 21
370.1850021392373
 31
0.0
  0
LINE
  5
2EA0
330
1E
100
AcDbEntity
  8
OILES
100
AcDbLine
 10
3723.466553652105
 20
372.3055921392374
 30
0.0
 11
3723.466553652105
 21
371.3175861392373
 31
0.0
  0
LINE
  5
2EA1
330
1E
100
AcDbEntity
  8
OILES
100
AcDbLine
 10
3723.466553652105
 20
371.1003621392373
 30
0.0
 11
3723.466553652105
 21
370.1850021392373
 31
0.0
  0
LINE
  5
2EA2
330
1E
100
AcDbEntity
  8
OILES
100
AcDbLine
 10
3723.565583652105
 20
372.3055921392374
 30
0.0
 11
3723.565583652105
 21
371.2053881392374
 31
0.0
  0
LINE
  5
2EA3
330
1E
100
AcDbEntity
  8
OILES
100
AcDbLine
 10
3723.565583652105
 20
371.2043201392374
 30
0.0
 11
3723.565583652105
 21
370.1850021392373
 31
0.0
  0
LINE
  5
2EA4
330
1E
100
AcDbEntity
  8
OILES
100
AcDbLine
 10
3723.664582652105
 20
372.2376301392373
 30
0.0
 11
3723.664582652105
 21
370.2479751392374
 31
0.0
  0
LINE
  5
2EA5
330
1E
100
AcDbEntity
  8
OILES
100
AcDbLine
 10
3723.763581652105
 20
372.1254161392374
 30
0.0
 11
3723.763581652105
 21
370.3519181392374
 31
0.0
  0
LINE
  5
2EA6
330
1E
100
AcDbEntity
  8
OILES
100
AcDbLine
 10
3723.862580652105
 20
372.0132191392374
 30
0.0
 11
3723.862580652105
 21
370.4558761392374
 31
0.0
  0
LINE
  5
2EA7
330
1E
100
AcDbEntity
  8
OILES
100
AcDbLine
 10
3723.961579652105
 20
371.9010211392373
 30
0.0
 11
3723.961579652105
 21
370.5598191392373
 31
0.0
  0
LINE
  5
2EA8
330
1E
100
AcDbEntity
  8
OILES
100
AcDbLine
 10
3724.060578652105
 20
371.7888231392374
 30
0.0
 11
3724.060578652105
 21
370.6443831392373
 31
0.0
  0
LINE
  5
2EA9
330
1E
100
AcDbEntity
  8
OILES
100
AcDbLine
 10
3724.159577652105
 20
371.8280071392373
 30
0.0
 11
3724.159577652105
 21
370.5321851392374
 31
0.0
  0
LINE
  5
2EAA
330
1E
100
AcDbEntity
  8
OILES
100
AcDbLine
 10
3724.258576652105
 20
371.9319661392374
 30
0.0
 11
3724.258576652105
 21
370.4199871392374
 31
0.0
  0
LINE
  5
2EAB
330
1E
100
AcDbEntity
  8
OILES
100
AcDbLine
 10
3724.357575652105
 20
372.0359081392373
 30
0.0
 11
3724.357575652105
 21
370.3077901392374
 31
0.0
  0
LINE
  5
2EAC
330
1E
100
AcDbEntity
  8
OILES
100
AcDbLine
 10
3724.456574652105
 20
372.1398671392374
 30
0.0
 11
3724.456574652105
 21
370.1955761392373
 31
0.0
  0
LINE
  5
2EAD
330
1E
100
AcDbEntity
  8
OILES
100
AcDbLine
 10
3724.555573652105
 20
372.2438091392373
 30
0.0
 11
3724.555573652105
 21
370.0833791392374
 31
0.0
  0
LINE
  5
2EAE
330
1E
100
AcDbEntity
  8
OILES
100
AcDbLine
 10
3724.654572652105
 20
372.3055921392374
 30
0.0
 11
3724.654572652105
 21
371.2874801392374
 31
0.0
  0
LINE
  5
2EAF
330
1E
100
AcDbEntity
  8
OILES
100
AcDbLine
 10
3724.654572652105
 20
371.1156201392374
 30
0.0
 11
3724.654572652105
 21
370.0167131392374
 31
0.0
  0
LINE
  5
2EB0
330
1E
100
AcDbEntity
  8
OILES
100
AcDbLine
 10
3724.753571652105
 20
372.3055921392374
 30
0.0
 11
3724.753571652105
 21
371.3914231392374
 31
0.0
  0
LINE
  5
2EB1
330
1E
100
AcDbEntity
  8
OILES
100
AcDbLine
 10
3724.753571652105
 20
371.0034221392374
 30
0.0
 11
3724.753571652105
 21
370.0167131392374
 31
0.0
  0
TEXT
  5
2EB2
330
1E
100
AcDbEntity
  8
OILES
100
AcDbText
 10
3394.943324652105
 20
442.9938711392374
 30
0.0
 40
6.0
  1
開
 50
0.00001001791
 41
1.111110999999999
100
AcDbText
  0
TEXT
  5
2EB3
330
1E
100
AcDbEntity
  8
OILES
100
AcDbText
 10
3394.943324652105
 20
422.9938711392374
 30
0.0
 40
6.0
  1
停
 50
0.00001001791
 41
1.111110999999999
100
AcDbText
  0
TEXT
  5
2EB4
330
1E
100
AcDbEntity
  8
OILES
100
AcDbText
 10
3394.943324652105
 20
402.9938711392373
 30
0.0
 40
6.0
  1
閉
 50
0.00001001791
 41
1.111110999999999
100
AcDbText
  0
TEXT
  5
2EB8
330
1E
100
AcDbEntity
  8
OILES
100
AcDbText
 10
3534.943324652105
 20
442.9938711392374
 30
0.0
 40
6.0
  1
開
 50
0.00001001791
 41
1.111110999999999
100
AcDbText
  0
TEXT
  5
2EB9
330
1E
100
AcDbEntity
  8
OILES
100
AcDbText
 10
3534.943324652105
 20
422.9938711392374
 30
0.0
 40
6.0
  1
停
 50
0.00001001791
 41
1.111110999999999
100
AcDbText
  0
TEXT
  5
2EBA
330
1E
100
AcDbEntity
  8
OILES
100
AcDbText
 10
3534.943324652105
 20
402.9938711392373
 30
0.0
 40
6.0
  1
閉
 50
0.00001001791
 41
1.111110999999999
100
AcDbText
  0
TEXT
  5
2EBB
330
1E
100
AcDbEntity
  8
OILES
100
AcDbText
 10
3604.943309652105
 20
442.9938711392374
 30
0.0
 40
6.0
  1
開
 50
0.00001001791
 41
1.111110999999999
100
AcDbText
  0
TEXT
  5
2EBC
330
1E
100
AcDbEntity
  8
OILES
100
AcDbText
 10
3604.943309652105
 20
422.9938711392374
 30
0.0
 40
6.0
  1
停
 50
0.00001001791
 41
1.111110999999999
100
AcDbText
  0
TEXT
  5
2EBD
330
1E
100
AcDbEntity
  8
OILES
100
AcDbText
 10
3604.943309652105
 20
402.9938711392373
 30
0.0
 40
6.0
  1
閉
 50
0.00001001791
 41
1.111110999999999
100
AcDbText
  0
TEXT
  5
2EBE
330
1E
100
AcDbEntity
  8
OILES
100
AcDbText
 10
3674.943309652106
 20
442.9938711392374
 30
0.0
 40
6.0
  1
開
 50
0.00001001791
 41
1.111110999999999
100
AcDbText
  0
TEXT
  5
2EBF
330
1E
100
AcDbEntity
  8
OILES
100
AcDbText
 10
3674.943309652106
 20
422.9938711392374
 30
0.0
 40
6.0
  1
停
 50
0.00001001791
 41
1.111110999999999
100
AcDbText
  0
TEXT
  5
2EC0
330
1E
100
AcDbEntity
  8
OILES
100
AcDbText
 10
3674.943309652106
 20
402.9938711392373
 30
0.0
 40
6.0
  1
閉
 50
0.00001001791
 41
1.111110999999999
100
AcDbText
  0
LINE
  5
2EC1
330
1E
100
AcDbEntity
  8
OILES
100
AcDbLine
 10
3481.776657652105
 20
482.9938551392372
 30
0.0
 11
3475.276657652105
 21
482.9938551392372
 31
0.0
  0
LINE
  5
2EC2
330
1E
100
AcDbEntity
  8
OILES
100
AcDbLine
 10
3481.776657652105
 20
488.9938551392374
 30
0.0
 11
3475.276657652105
 21
488.9938551392374
 31
0.0
  0
LINE
  5
2EC3
330
1E
100
AcDbEntity
  8
OILES
100
AcDbLine
 10
3475.276657652105
 20
488.9938551392374
 30
0.0
 11
3475.276657652105
 21
482.9938551392372
 31
0.0
  0
LINE
  5
2EC4
330
1E
100
AcDbEntity
  8
OILES
100
AcDbLine
 10
3481.776657652105
 20
488.9938551392374
 30
0.0
 11
3481.776657652105
 21
482.9938551392372
 31
0.0
  0
LINE
  5
2EC5
330
1E
100
AcDbEntity
  8
OILES
100
AcDbLine
 10
3482.776657652105
 20
488.9938551392374
 30
0.0
 11
3482.776657652105
 21
482.9938551392372
 31
0.0
  0
LINE
  5
2EC6
330
1E
100
AcDbEntity
  8
OILES
100
AcDbLine
 10
3489.276657652105
 20
488.9938551392374
 30
0.0
 11
3489.276657652105
 21
482.9938551392372
 31
0.0
  0
LINE
  5
2EC7
330
1E
100
AcDbEntity
  8
OILES
100
AcDbLine
 10
3489.276657652105
 20
482.9938551392372
 30
0.0
 11
3482.776657652105
 21
482.9938551392372
 31
0.0
  0
LINE
  5
2EC8
330
1E
100
AcDbEntity
  8
OILES
100
AcDbLine
 10
3489.276657652105
 20
488.9938551392374
 30
0.0
 11
3482.776657652105
 21
488.9938551392374
 31
0.0
  0
LINE
  5
2EC9
330
1E
100
AcDbEntity
  8
OILES
100
AcDbLine
 10
3490.776657652105
 20
481.9938551392373
 30
0.0
 11
3473.776657652105
 21
481.9938551392373
 31
0.0
  0
LINE
  5
2ECA
330
1E
100
AcDbEntity
  8
OILES
100
AcDbLine
 10
3490.776657652105
 20
489.9938551392374
 30
0.0
 11
3473.776657652105
 21
489.9938551392374
 31
0.0
  0
LINE
  5
2ECB
330
1E
100
AcDbEntity
  8
OILES
100
AcDbLine
 10
3490.776657652105
 20
489.9938551392374
 30
0.0
 11
3490.776657652105
 21
481.9938551392373
 31
0.0
  0
LINE
  5
2ECC
330
1E
100
AcDbEntity
  8
OILES
100
AcDbLine
 10
3473.776657652105
 20
489.9938551392374
 30
0.0
 11
3473.776657652105
 21
481.9938551392373
 31
0.0
  0
LINE
  5
2ECD
330
1E
100
AcDbEntity
  8
OILES
100
AcDbLine
 10
3486.776657652105
 20
401.4938701392373
 30
0.0
 11
3477.776657652106
 21
401.4938701392373
 31
0.0
  0
LINE
  5
2ECE
330
1E
100
AcDbEntity
  8
OILES
100
AcDbLine
 10
3486.776657652105
 20
410.4938701392374
 30
0.0
 11
3486.776657652105
 21
401.4938701392373
 31
0.0
  0
LINE
  5
2ECF
330
1E
100
AcDbEntity
  8
OILES
100
AcDbLine
 10
3486.776657652105
 20
410.4938701392374
 30
0.0
 11
3477.776657652106
 21
410.4938701392374
 31
0.0
  0
LINE
  5
2ED0
330
1E
100
AcDbEntity
  8
OILES
100
AcDbLine
 10
3477.776657652106
 20
410.4938701392374
 30
0.0
 11
3477.776657652106
 21
401.4938701392373
 31
0.0
  0
LINE
  5
2ED1
330
1E
100
AcDbEntity
  8
OILES
100
AcDbLine
 10
3477.776657652106
 20
430.4938701392374
 30
0.0
 11
3477.776657652106
 21
421.4938701392374
 31
0.0
  0
LINE
  5
2ED2
330
1E
100
AcDbEntity
  8
OILES
100
AcDbLine
 10
3486.776657652105
 20
421.4938701392374
 30
0.0
 11
3477.776657652106
 21
421.4938701392374
 31
0.0
  0
LINE
  5
2ED3
330
1E
100
AcDbEntity
  8
OILES
100
AcDbLine
 10
3486.776657652105
 20
430.4938701392374
 30
0.0
 11
3486.776657652105
 21
421.4938701392374
 31
0.0
  0
LINE
  5
2ED4
330
1E
100
AcDbEntity
  8
OILES
100
AcDbLine
 10
3486.776657652105
 20
430.4938701392374
 30
0.0
 11
3477.776657652106
 21
430.4938701392374
 31
0.0
  0
LINE
  5
2ED5
330
1E
100
AcDbEntity
  8
OILES
100
AcDbLine
 10
3486.776657652105
 20
441.4938701392373
 30
0.0
 11
3477.776657652106
 21
441.4938701392373
 31
0.0
  0
LINE
  5
2ED6
330
1E
100
AcDbEntity
  8
OILES
100
AcDbLine
 10
3486.776657652105
 20
450.4938701392374
 30
0.0
 11
3486.776657652105
 21
441.4938701392373
 31
0.0
  0
LINE
  5
2ED7
330
1E
100
AcDbEntity
  8
OILES
100
AcDbLine
 10
3486.776657652105
 20
450.4938701392374
 30
0.0
 11
3477.776657652106
 21
450.4938701392374
 31
0.0
  0
LINE
  5
2ED8
330
1E
100
AcDbEntity
  8
OILES
100
AcDbLine
 10
3477.776657652106
 20
450.4938701392374
 30
0.0
 11
3477.776657652106
 21
441.4938701392373
 31
0.0
  0
TEXT
  5
2EDD
330
1E
100
AcDbEntity
  8
OILES
100
AcDbText
 10
3464.943324652105
 20
402.9938711392373
 30
0.0
 40
6.0
  1
閉
 50
0.00001001791
 41
1.111110999999999
100
AcDbText
  0
TEXT
  5
2EDE
330
1E
100
AcDbEntity
  8
OILES
100
AcDbText
 10
3464.943324652105
 20
422.9938711392374
 30
0.0
 40
6.0
  1
停
 50
0.00001001791
 41
1.111110999999999
100
AcDbText
  0
LINE
  5
2EDF
330
1E
100
AcDbEntity
  8
OILES
100
AcDbLine
 10
3476.026657652105
 20
488.2438551392374
 30
0.0
 11
3476.026657652105
 21
483.7438551392373
 31
0.0
  0
LINE
  5
2EE0
330
1E
100
AcDbEntity
  8
OILES
100
AcDbLine
 10
3476.026657652105
 20
483.7438551392373
 30
0.0
 11
3481.026657652105
 21
483.7438551392373
 31
0.0
  0
LINE
  5
2EE1
330
1E
100
AcDbEntity
  8
OILES
100
AcDbLine
 10
3481.026657652105
 20
483.7438551392373
 30
0.0
 11
3481.026657652105
 21
488.2438551392374
 31
0.0
  0
LINE
  5
2EE2
330
1E
100
AcDbEntity
  8
OILES
100
AcDbLine
 10
3481.026657652105
 20
488.2438551392374
 30
0.0
 11
3476.026657652105
 21
488.2438551392374
 31
0.0
  0
LINE
  5
2EE3
330
1E
100
AcDbEntity
  8
OILES
100
AcDbLine
 10
3475.276657652105
 20
488.9938551392374
 30
0.0
 11
3476.026657652105
 21
488.2438551392374
 31
0.0
  0
LINE
  5
2EE4
330
1E
100
AcDbEntity
  8
OILES
100
AcDbLine
 10
3476.026657652105
 20
483.7438551392373
 30
0.0
 11
3475.276657652105
 21
482.9938551392372
 31
0.0
  0
LINE
  5
2EE5
330
1E
100
AcDbEntity
  8
OILES
100
AcDbLine
 10
3481.776657652105
 20
488.9938551392374
 30
0.0
 11
3481.026657652105
 21
488.2438551392374
 31
0.0
  0
LINE
  5
2EE6
330
1E
100
AcDbEntity
  8
OILES
100
AcDbLine
 10
3481.026657652105
 20
483.7438551392373
 30
0.0
 11
3481.776657652105
 21
482.9938551392372
 31
0.0
  0
LINE
  5
2EE7
330
1E
100
AcDbEntity
  8
OILES
100
AcDbLine
 10
3483.526657652105
 20
483.7438551392373
 30
0.0
 11
3482.776657652105
 21
482.9938551392372
 31
0.0
  0
LINE
  5
2EE8
330
1E
100
AcDbEntity
  8
OILES
100
AcDbLine
 10
3488.526657652105
 20
483.7438551392373
 30
0.0
 11
3489.276657652105
 21
482.9938551392372
 31
0.0
  0
LINE
  5
2EE9
330
1E
100
AcDbEntity
  8
OILES
100
AcDbLine
 10
3489.276657652105
 20
488.9938551392374
 30
0.0
 11
3488.526657652105
 21
488.2438551392374
 31
0.0
  0
LINE
  5
2EEA
330
1E
100
AcDbEntity
  8
OILES
100
AcDbLine
 10
3482.776657652105
 20
488.9938551392374
 30
0.0
 11
3483.526657652105
 21
488.2438551392374
 31
0.0
  0
LINE
  5
2EEB
330
1E
100
AcDbEntity
  8
OILES
100
AcDbLine
 10
3483.526657652105
 20
488.2438551392374
 30
0.0
 11
3483.526657652105
 21
483.7438551392373
 31
0.0
  0
LINE
  5
2EEC
330
1E
100
AcDbEntity
  8
OILES
100
AcDbLine
 10
3483.526657652105
 20
483.7438551392373
 30
0.0
 11
3488.526657652105
 21
483.7438551392373
 31
0.0
  0
LINE
  5
2EED
330
1E
100
AcDbEntity
  8
OILES
100
AcDbLine
 10
3488.526657652105
 20
483.7438551392373
 30
0.0
 11
3488.526657652105
 21
488.2438551392374
 31
0.0
  0
LINE
  5
2EEE
330
1E
100
AcDbEntity
  8
OILES
100
AcDbLine
 10
3488.526657652105
 20
488.2438551392374
 30
0.0
 11
3483.526657652105
 21
488.2438551392374
 31
0.0
  0
LINE
  5
2EEF
330
1E
100
AcDbEntity
  8
OILES
100
AcDbLine
 10
3475.776657652105
 20
399.4938701392373
 30
0.0
 11
3475.776657652105
 21
412.4938701392373
 31
0.0
  0
LINE
  5
2EF0
330
1E
100
AcDbEntity
  8
OILES
100
AcDbLine
 10
3488.776657652105
 20
399.4938701392373
 30
0.0
 11
3475.776657652105
 21
399.4938701392373
 31
0.0
  0
LINE
  5
2EF1
330
1E
100
AcDbEntity
  8
OILES
100
AcDbLine
 10
3488.776657652105
 20
412.4938701392373
 30
0.0
 11
3488.776657652105
 21
399.4938701392373
 31
0.0
  0
LINE
  5
2EF2
330
1E
100
AcDbEntity
  8
OILES
100
AcDbLine
 10
3475.776657652105
 20
412.4938701392373
 30
0.0
 11
3488.776657652105
 21
412.4938701392373
 31
0.0
  0
LINE
  5
2EF3
330
1E
100
AcDbEntity
  8
OILES
100
AcDbLine
 10
3475.776657652105
 20
419.4938701392374
 30
0.0
 11
3475.776657652105
 21
432.4938701392373
 31
0.0
  0
LINE
  5
2EF4
330
1E
100
AcDbEntity
  8
OILES
100
AcDbLine
 10
3488.776657652105
 20
419.4938701392374
 30
0.0
 11
3475.776657652105
 21
419.4938701392374
 31
0.0
  0
LINE
  5
2EF5
330
1E
100
AcDbEntity
  8
OILES
100
AcDbLine
 10
3488.776657652105
 20
432.4938701392373
 30
0.0
 11
3488.776657652105
 21
419.4938701392374
 31
0.0
  0
LINE
  5
2EF6
330
1E
100
AcDbEntity
  8
OILES
100
AcDbLine
 10
3475.776657652105
 20
432.4938701392373
 30
0.0
 11
3488.776657652105
 21
432.4938701392373
 31
0.0
  0
LINE
  5
2EF7
330
1E
100
AcDbEntity
  8
OILES
100
AcDbLine
 10
3488.776657652105
 20
439.4938701392374
 30
0.0
 11
3475.776657652105
 21
439.4938701392374
 31
0.0
  0
LINE
  5
2EF8
330
1E
100
AcDbEntity
  8
OILES
100
AcDbLine
 10
3488.776657652105
 20
452.4938701392374
 30
0.0
 11
3488.776657652105
 21
439.4938701392374
 31
0.0
  0
LINE
  5
2EF9
330
1E
100
AcDbEntity
  8
OILES
100
AcDbLine
 10
3475.776657652105
 20
452.4938701392374
 30
0.0
 11
3488.776657652105
 21
452.4938701392374
 31
0.0
  0
LINE
  5
2EFA
330
1E
100
AcDbEntity
  8
OILES
100
AcDbLine
 10
3475.776657652105
 20
439.4938701392374
 30
0.0
 11
3475.776657652105
 21
452.4938701392374
 31
0.0
  0
TEXT
  5
2EFB
330
1E
100
AcDbEntity
  8
OILES
100
AcDbText
 10
3464.943324652105
 20
442.9938711392374
 30
0.0
 40
6.0
  1
開
 50
0.00001001791
 41
1.111110999999999
100
AcDbText
  0
TEXT
  5
2EFE
330
1E
100
AcDbEntity
  8
OILES
100
AcDbText
 10
3474.609991652105
 20
494.9938551392373
 30
0.0
 40
5.0
  1
Ｎｏ．１
 41
0.666667
100
AcDbText
  0
TEXT
  5
2EFF
330
1E
100
AcDbEntity
  8
OILES
100
AcDbText
 10
3544.609991652106
 20
494.9938551392373
 30
0.0
 40
5.0
  1
Ｎｏ．２
 41
0.666667
100
AcDbText
  0
TEXT
  5
2F00
330
1E
100
AcDbEntity
  8
OILES
100
AcDbText
 10
3614.609976652106
 20
494.9938551392373
 30
0.0
 40
5.0
  1
Ｎｏ．３
 41
0.666667
100
AcDbText
  0
TEXT
  5
2F01
330
1E
100
AcDbEntity
  8
OILES
100
AcDbText
 10
3684.609976652105
 20
494.9938551392373
 30
0.0
 40
5.0
  1
Ｎｏ．４
 41
0.666667
100
AcDbText
  0
TEXT
  5
2F02
330
1E
100
AcDbEntity
  8
OILES
100
AcDbText
 10
3406.109991652105
 20
494.9938591392373
 30
0.0
 40
5.0
  1
一　斉
 41
0.666667
100
AcDbText
  0
TEXT
  5
30E7
330
1E
100
AcDbEntity
  8
OILES
100
AcDbText
 10
3413.478658172272
 20
472.9968691392373
 30
0.0
 40
5.0
  1
開
 50
0.00001001791
 41
1.1
100
AcDbText
  0
TEXT
  5
30F0
330
1E
100
AcDbEntity
  8
OILES
100
AcDbText
 10
3475.978658172272
 20
472.9968691392373
 30
0.0
 40
5.0
  1
閉
 50
0.00001001791
 41
1.1
100
AcDbText
  0
TEXT
  5
30F1
330
1E
100
AcDbEntity
  8
OILES
100
AcDbText
 10
3483.478658172272
 20
472.9968691392373
 30
0.0
 40
5.0
  1
開
 50
0.00001001791
 41
1.1
100
AcDbText
  0
TEXT
  5
30FA
330
1E
100
AcDbEntity
  8
OILES
100
AcDbText
 10
3545.978658172272
 20
472.9968691392373
 30
0.0
 40
5.0
  1
閉
 50
0.00001001791
 41
1.1
100
AcDbText
  0
TEXT
  5
30FB
330
1E
100
AcDbEntity
  8
OILES
100
AcDbText
 10
3553.478658172272
 20
472.9968691392373
 30
0.0
 40
5.0
  1
開
 50
0.00001001791
 41
1.1
100
AcDbText
  0
TEXT
  5
3104
330
1E
100
AcDbEntity
  8
OILES
100
AcDbText
 10
3615.978643172272
 20
472.9968691392373
 30
0.0
 40
5.0
  1
閉
 50
0.00001001791
 41
1.1
100
AcDbText
  0
TEXT
  5
3105
330
1E
100
AcDbEntity
  8
OILES
100
AcDbText
 10
3623.478643172272
 20
472.9968691392373
 30
0.0
 40
5.0
  1
開
 50
0.00001001791
 41
1.1
100
AcDbText
  0
TEXT
  5
310E
330
1E
100
AcDbEntity
  8
OILES
100
AcDbText
 10
3685.978643172272
 20
472.9968691392373
 30
0.0
 40
5.0
  1
閉
 50
0.00001001791
 41
1.1
100
AcDbText
  0
TEXT
  5
310F
330
1E
100
AcDbEntity
  8
OILES
100
AcDbText
 10
3693.478643172272
 20
472.9968691392373
 30
0.0
 40
5.0
  1
開
 50
0.00001001791
 41
1.1
100
AcDbText
  0
DIMENSION
  5
3110
102
{ACAD_XDICTIONARY
360
3111
102
}
330
1E
100
AcDbEntity
  8
OILES @ 1
100
AcDbDimension
  2
*D63
 10
3717.276642652105
 20
550.2308845264815
 30
0.0
 11
3552.276650152105
 21
555.2308845264815
 31
0.0
 70
    32
 71
     5
 42
329.9999849999999
  3
A1  1-1
100
AcDbAlignedDimension
 13
3387.276657652105
 23
506.4938551392374
 33
0.0
 14
3717.276642652105
 24
506.4938551392374
 34
0.0
100
AcDbRotatedDimension
1001
AcadAnnotative
1000
AnnotativeData
1002
{
1070
     1
1070
     0
1002
}
1001
ACAD
1000
DSTYLE
1002
{
1070
    40
1040
1.0
1070
   279
1070
     0
1070
   289
1070
     3
1070
   174
1070
     0
1070
   175
1070
     0
1070
   172
1070
     1
1002
}
  0
DIMENSION
  5
3133
102
{ACAD_XDICTIONARY
360
3134
102
}
330
1E
100
AcDbEntity
  8
OILES @ 1
100
AcDbDimension
  2
*D64
 10
3742.276642652105
 20
571.3323019634908
 30
0.0
 11
3552.276650152105
 21
576.3323019634908
 31
0.0
 70
    32
 71
     5
 42
379.9999849999999
  3
A1  1-1
100
AcDbAlignedDimension
 13
3362.276657652105
 23
534.9938551392374
 33
0.0
 14
3742.276642652105
 24
534.9938551392374
 34
0.0
100
AcDbRotatedDimension
1001
AcadAnnotative
1000
AnnotativeData
1002
{
1070
     1
1070
     0
1002
}
1001
ACAD
1000
DSTYLE
1002
{
1070
    40
1040
1.0
1070
   279
1070
     0
1070
   289
1070
     3
1070
   174
1070
     0
1070
   175
1070
     0
1070
   172
1070
     1
1002
}
  0
DIMENSION
  5
3144
102
{ACAD_XDICTIONARY
360
3145
102
}
330
1E
100
AcDbEntity
  8
OILES @ 1
100
AcDbDimension
  2
*D65
 10
3765.368024638994
 20
389.9938701392376
 30
0.0
 11
3760.368024638992
 21
444.9938626392364
 31
0.0
 70
    32
 71
     5
 42
109.999985
  3
A1  1-1
100
AcDbAlignedDimension
 13
3723.776642652105
 23
499.9938551392373
 33
0.0
 14
3723.776642652105
 24
389.9938701392374
 34
0.0
 50
90.0
100
AcDbRotatedDimension
1001
AcadAnnotative
1000
AnnotativeData
1002
{
1070
     1
1070
     0
1002
}
1001
ACAD
1000
DSTYLE
1002
{
1070
    40
1040
1.0
1070
   279
1070
     0
1070
   289
1070
     3
1070
   174
1070
     0
1070
   175
1070
     0
1070
   172
1070
     1
1002
}
  0
DIMENSION
  5
3155
102
{ACAD_XDICTIONARY
360
3156
102
}
330
1E
100
AcDbEntity
  8
OILES @ 1
100
AcDbDimension
  2
*D66
 10
3765.368024638995
 20
354.9938701392374
 30
0.0
 11
3760.368024638994
 21
372.4938701392364
 31
0.0
 70
    32
 71
     5
 42
35.00000000000006
  3
A1  1-1
100
AcDbAlignedDimension
 13
3723.776642652105
 23
389.9938701392374
 33
0.0
 14
3742.276642652105
 24
354.9938701392373
 34
0.0
 50
90.0
100
AcDbRotatedDimension
1001
AcadAnnotative
1000
AnnotativeData
1002
{
1070
     1
1070
     0
1002
}
1001
ACAD
1000
DSTYLE
1002
{
1070
    40
1040
1.0
1070
   279
1070
     1
1070
   289
1070
     3
1070
   174
1070
     0
1070
   175
1070
     0
1070
   172
1070
     1
1002
}
  0
DIMENSION
  5
3166
102
{ACAD_XDICTIONARY
360
3167
102
}
330
1E
100
AcDbEntity
  8
OILES @ 1
100
AcDbDimension
  2
*D67
 10
3791.598499550583
 20
354.9938701392376
 30
0.0
 11
3786.598499550583
 21
444.9938626392365
 31
0.0
 70
    32
 71
     5
 42
179.9999850000001
  3
A1  1-1
100
AcDbAlignedDimension
 13
3742.276642652105
 23
534.9938551392374
 33
0.0
 14
3766.368024638988
 24
354.9938701392374
 34
0.0
 50
90.0
100
AcDbRotatedDimension
1001
AcadAnnotative
1000
AnnotativeData
1002
{
1070
     1
1070
     0
1002
}
1001
ACAD
1000
DSTYLE
1002
{
1070
    40
1040
1.0
1070
   279
1070
     0
1070
   289
1070
     3
1070
   174
1070
     0
1070
   175
1070
     0
1070
   172
1070
     1
1002
}
  0
DIMENSION
  5
3177
102
{ACAD_XDICTIONARY
360
3178
102
}
330
1E
100
AcDbEntity
  8
OILES @ 1
100
AcDbDimension
  2
*D68
 10
3412.276657652105
 20
333.0286218570773
 30
0.0
 11
3387.276657652105
 21
338.0286218570773
 31
0.0
 70
    32
 71
     5
 42
50.0
  3
A1  1-1
100
AcDbAlignedDimension
 13
3362.276657652105
 23
354.9938701392373
 33
0.0
 14
3412.276657652105
 24
399.4938701392373
 34
0.0
100
AcDbRotatedDimension
1001
AcadAnnotative
1000
AnnotativeData
1002
{
1070
     1
1070
     0
1002
}
1001
ACAD
1000
DSTYLE
1002
{
1070
    40
1040
1.0
1070
   279
1070
     0
1070
   289
1070
     3
1070
   174
1070
     0
1070
   175
1070
     0
1070
   172
1070
     1
1002
}
  0
DIMENSION
  5
3188
102
{ACAD_XDICTIONARY
360
3189
102
}
330
1E
100
AcDbEntity
  8
OILES @ 1
100
AcDbDimension
  2
*D69
 10
3482.276657652105
 20
333.0286218570773
 30
0.0
 11
3447.276657652105
 21
338.0286218570773
 31
0.0
 70
    32
 71
     5
 42
70.0
  3
A1  1-1
100
AcDbAlignedDimension
 13
3412.276657652105
 23
399.4938701392373
 33
0.0
 14
3482.276657652105
 24
399.4938701392373
 34
0.0
100
AcDbRotatedDimension
1001
AcadAnnotative
1000
AnnotativeData
1002
{
1070
     1
1070
     0
1002
}
1001
ACAD
1000
DSTYLE
1002
{
1070
    40
1040
1.0
1070
   279
1070
     1
1070
   289
1070
     3
1070
   174
1070
     0
1070
   175
1070
     0
1070
   172
1070
     1
1002
}
  0
DIMENSION
  5
3199
102
{ACAD_XDICTIONARY
360
319A
102
}
330
1E
100
AcDbEntity
  8
OILES @ 1
100
AcDbDimension
  2
*D70
 10
3552.276657652105
 20
333.0286218570773
 30
0.0
 11
3517.276657652105
 21
338.0286218570773
 31
0.0
 70
    32
 71
     5
 42
70.0
  3
A1  1-1
100
AcDbAlignedDimension
 13
3482.276657652105
 23
399.4938701392373
 33
0.0
 14
3552.276657652105
 24
399.4938701392373
 34
0.0
100
AcDbRotatedDimension
1001
AcadAnnotative
1000
AnnotativeData
1002
{
1070
     1
1070
     0
1002
}
1001
ACAD
1000
DSTYLE
1002
{
1070
    40
1040
1.0
1070
   279
1070
     1
1070
   289
1070
     3
1070
   174
1070
     0
1070
   175
1070
     0
1070
   172
1070
     1
1002
}
  0
DIMENSION
  5
31AA
102
{ACAD_XDICTIONARY
360
31AB
102
}
330
1E
100
AcDbEntity
  8
OILES @ 1
100
AcDbDimension
  2
*D71
 10
3622.276642652105
 20
333.0286218570773
 30
0.0
 11
3587.276650152105
 21
338.0286218570773
 31
0.0
 70
    32
 71
     5
 42
69.99998499999993
  3
A1  1-1
100
AcDbAlignedDimension
 13
3552.276657652105
 23
399.4938701392373
 33
0.0
 14
3622.276642652105
 24
399.4938701392373
 34
0.0
100
AcDbRotatedDimension
1001
AcadAnnotative
1000
AnnotativeData
1002
{
1070
     1
1070
     0
1002
}
1001
ACAD
1000
DSTYLE
1002
{
1070
    40
1040
1.0
1070
   279
1070
     1
1070
   289
1070
     3
1070
   174
1070
     0
1070
   175
1070
     0
1070
   172
1070
     1
1002
}
  0
DIMENSION
  5
31BB
102
{ACAD_XDICTIONARY
360
31BC
102
}
330
1E
100
AcDbEntity
  8
OILES @ 1
100
AcDbDimension
  2
*D72
 10
3692.276642652105
 20
333.0286218570773
 30
0.0
 11
3657.276642652105
 21
338.0286218570773
 31
0.0
 70
    32
 71
     5
 42
70.0
  3
A1  1-1
100
AcDbAlignedDimension
 13
3622.276642652105
 23
399.4938701392373
 33
0.0
 14
3692.276642652105
 24
399.4938701392373
 34
0.0
100
AcDbRotatedDimension
1001
AcadAnnotative
1000
AnnotativeData
1002
{
1070
     1
1070
     0
1002
}
1001
ACAD
1000
DSTYLE
1002
{
1070
    40
1040
1.0
1070
   279
1070
     1
1070
   289
1070
     3
1070
   174
1070
     0
1070
   175
1070
     0
1070
   172
1070
     1
1002
}
  0
DIMENSION
  5
31CC
102
{ACAD_XDICTIONARY
360
31CD
102
}
330
1E
100
AcDbEntity
  8
OILES @ 1
100
AcDbDimension
  2
*D73
 10
3337.411815096878
 20
445.9938701392376
 30
0.0
 11
3332.411815096878
 21
400.4938701392364
 31
0.0
 70
    32
 71
     5
 42
91.00000000000012
  3
A1  1-1
100
AcDbAlignedDimension
 13
3362.276657652105
 23
354.9938701392373
 33
0.0
 14
3405.776657652105
 24
445.9938701392373
 34
0.0
 50
90.0
100
AcDbRotatedDimension
1001
AcadAnnotative
1000
AnnotativeData
1002
{
1070
     1
1070
     0
1002
}
1001
ACAD
1000
DSTYLE
1002
{
1070
    40
1040
1.0
1070
   279
1070
     0
1070
   289
1070
     3
1070
   174
1070
     0
1070
   175
1070
     0
1070
   172
1070
     1
1002
}
  0
DIMENSION
  5
31E6
102
{ACAD_XDICTIONARY
360
31E7
102
}
330
1E
100
AcDbEntity
  8
OILES @ 1
100
AcDbDimension
  2
*D74
 10
3873.585736800302
 20
550.2308845264815
 30
0.0
 11
3886.685736800302
 21
555.2308845264815
 31
0.0
 70
    32
 71
     5
 42
10.0
  3
A1  1-1
100
AcDbAlignedDimension
 13
3863.585736800302
 23
532.9938551392374
 33
0.0
 14
3873.585736800302
 24
534.9938551392374
 34
0.0
100
AcDbRotatedDimension
1001
AcadAnnotative
1000
AnnotativeData
1002
{
1070
     1
1070
     0
1002
}
1001
ACAD
1000
DSTYLE
1002
{
1070
    40
1040
1.0
1070
   279
1070
     0
1070
   289
1070
     3
1070
   174
1070
     0
1070
   175
1070
     0
1070
   172
1070
     1
1002
}
  0
DIMENSION
  5
31F9
102
{ACAD_XDICTIONARY
360
31FA
102
}
330
1E
100
AcDbEntity
  8
OILES @ 1
100
AcDbDimension
  2
*D75
 10
3940.985700800302
 20
571.3323019634908
 30
0.0
 11
3902.285718800302
 21
576.3323019634908
 31
0.0
 70
    32
  1
80
 71
     5
 42
77.39996400000018
  3
A1  1-1
100
AcDbAlignedDimension
 13
3863.585736800302
 23
551.2308845264815
 33
0.0
 14
3940.985700800302
 24
524.9938551392374
 34
0.0
100
AcDbRotatedDimension
1001
AcadAnnotative
1000
AnnotativeData
1002
{
1070
     1
1070
     0
1002
}
1001
ACAD
1000
DSTYLE
1002
{
1070
    40
1040
1.0
1070
   279
1070
     0
1070
   289
1070
     3
1070
   174
1070
     0
1070
   175
1070
     0
1070
   172
1070
     1
1002
}
  0
DIMENSION
  5
3213
102
{ACAD_XDICTIONARY
360
3214
102
}
330
1E
100
AcDbEntity
  8
OILES @ 1
100
AcDbDimension
  2
*D76
 10
3973.899435938002
 20
364.9938701392375
 30
0.0
 11
3968.899435938001
 21
444.9938626392363
 31
0.0
 70
    32
 71
     5
 42
159.9999850000001
  3
A1  1-1
100
AcDbAlignedDimension
 13
3940.985700800302
 23
524.9938551392374
 33
0.0
 14
3940.985700800302
 24
364.9938701392374
 34
0.0
 50
90.0
100
AcDbRotatedDimension
1001
AcadAnnotative
1000
AnnotativeData
1002
{
1070
     1
1070
     0
1002
}
1001
ACAD
1000
DSTYLE
1002
{
1070
    40
1040
1.0
1070
   279
1070
     0
1070
   289
1070
     3
1070
   174
1070
     0
1070
   175
1070
     0
1070
   172
1070
     1
1002
}
  0
LWPOLYLINE
  5
3227
330
1E
100
AcDbEntity
  8
OILES
100
AcDbPolyline
 90
        4
 70
     1
 43
0.0
 10
3880.148297806491
 20
645.472502405463
 10
4026.935020117345
 20
645.472502405463
 10
4026.935020117345
 20
627.7363225006301
 10
3880.148297806491
 20
627.7363225006301
  0
ENDSEC
  0
SECTION
  2
OBJECTS
  0
DICTIONARY
  5
C
330
0
100
AcDbDictionary
281
     1
  3
ACAD_CIP_PREVIOUS_PRODUCT_INFO
350
1AD4
  3
ACAD_COLOR
350
1AB4
  3
ACAD_DETAILVIEWSTYLE
350
1ACD
  3
ACAD_GROUP
350
D
  3
ACAD_LAYOUT
350
E50
  3
ACAD_MATERIAL
350
1A82
  3
ACAD_MLEADERSTYLE
350
1AC9
  3
ACAD_MLINESTYLE
350
E
  3
ACAD_PLOTSETTINGS
350
E51
  3
ACAD_PLOTSTYLENAME
350
E4E
  3
ACAD_SCALELIST
350
1AB7
  3
ACAD_SECTIONVIEWSTYLE
350
1ACB
  3
ACAD_TABLESTYLE
350
1AB5
  3
ACAD_VISUALSTYLE
350
1A9B
  3
ACDB_RECOMPOSE_DATA
350
3683
  3
AcDbVariableDictionary
350
1A7E
  3
AEC_PROPERTY_SET_DEFS
350
1B03
  3
DWGPROPS
350
3684
  0
DICTIONARY
  5
2404
330
8
100
AcDbDictionary
280
     1
281
     1
  0
DICTIONARY
  5
1AEA
330
2
100
AcDbDictionary
280
     1
281
     1
  3
ACAD_LAYERSTATES
360
1AEB
  0
DICTIONARY
  5
23F2
330
F
100
AcDbDictionary
280
     1
281
     1
  3
ADSK_XREC_LAYER_RECONCILED
360
23F3
  0
DICTIONARY
  5
23F4
330
1C
100
AcDbDictionary
280
     1
281
     1
  3
ADSK_XREC_LAYER_RECONCILED
360
23F5
  0
DICTIONARY
  5
1AE2
330
1AE1
100
AcDbDictionary
280
     1
281
     1
  3
ADSK_XREC_LAYER_RECONCILED
360
23F8
  0
DICTIONARY
  5
3681
330
3680
100
AcDbDictionary
280
     1
281
     1
  3
ASDK_XREC_ANNO_SCALE_INFO
360
3682
  0
DICTIONARY
  5
2345
330
1E
100
AcDbDictionary
280
     1
281
     1
  3
ACAD_SORTENTS
360
2346
  0
DICTIONARY
  5
1B06
330
1B05
100
AcDbDictionary
280
     1
281
     1
  3
AcDbContextDataManager
360
1B07
  0
DICTIONARY
  5
1B11
330
1B10
100
AcDbDictionary
280
     1
281
     1
  3
AcDbContextDataManager
360
1B12
  0
DICTIONARY
  5
3111
330
3110
100
AcDbDictionary
280
     1
281
     1
  3
AcDbContextDataManager
360
3112
  0
DICTIONARY
  5
3134
330
3133
100
AcDbDictionary
280
     1
281
     1
  3
AcDbContextDataManager
360
3135
  0
DICTIONARY
  5
3145
330
3144
100
AcDbDictionary
280
     1
281
     1
  3
AcDbContextDataManager
360
3146
  0
DICTIONARY
  5
3156
330
3155
100
AcDbDictionary
280
     1
281
     1
  3
AcDbContextDataManager
360
3157
  0
DICTIONARY
  5
3167
330
3166
100
AcDbDictionary
280
     1
281
     1
  3
AcDbContextDataManager
360
3168
  0
DICTIONARY
  5
3178
330
3177
100
AcDbDictionary
280
     1
281
     1
  3
AcDbContextDataManager
360
3179
  0
DICTIONARY
  5
3189
330
3188
100
AcDbDictionary
280
     1
281
     1
  3
AcDbContextDataManager
360
318A
  0
DICTIONARY
  5
319A
330
3199
100
AcDbDictionary
280
     1
281
     1
  3
AcDbContextDataManager
360
319B
  0
DICTIONARY
  5
31AB
330
31AA
100
AcDbDictionary
280
     1
281
     1
  3
AcDbContextDataManager
360
31AC
  0
DICTIONARY
  5
31BC
330
31BB
100
AcDbDictionary
280
     1
281
     1
  3
AcDbContextDataManager
360
31BD
  0
DICTIONARY
  5
31CD
330
31CC
100
AcDbDictionary
280
     1
281
     1
  3
AcDbContextDataManager
360
31CE
  0
DICTIONARY
  5
31E7
330
31E6
100
AcDbDictionary
280
     1
281
     1
  3
AcDbContextDataManager
360
31E8
  0
DICTIONARY
  5
31FA
330
31F9
100
AcDbDictionary
280
     1
281
     1
  3
AcDbContextDataManager
360
31FB
  0
DICTIONARY
  5
3214
330
3213
100
AcDbDictionary
280
     1
281
     1
  3
AcDbContextDataManager
360
3215
  0
XRECORD
  5
1AD4
102
{ACAD_REACTORS
330
C
102
}
330
C
100
AcDbXrecord
280
     1
300
ACDLT
300
2020
300

  0
DICTIONARY
  5
1AB4
102
{ACAD_REACTORS
330
C
102
}
330
C
100
AcDbDictionary
281
     1
  0
DICTIONARY
  5
1ACD
102
{ACAD_REACTORS
330
C
102
}
330
C
100
AcDbDictionary
281
     1
  3
Imperial24
350
1ACE
  3
Metric50
350
1AED
  0
DICTIONARY
  5
D
102
{ACAD_REACTORS
330
C
102
}
330
C
100
AcDbDictionary
281
     1
  0
DICTIONARY
  5
E50
102
{ACAD_REACTORS
330
C
102
}
330
C
100
AcDbDictionary
281
     1
  3
Model
350
E52
  3
\U+FF9A\U+FF72\U+FF71\U+FF73\U+FF841
350
E53
  0
DICTIONARY
  5
1A82
102
{ACAD_REACTORS
330
C
102
}
330
C
100
AcDbDictionary
281
     1
  3
ByBlock
350
1A8B
  3
ByLayer
350
1A83
  3
Global
350
1A93
  0
DICTIONARY
  5
1AC9
102
{ACAD_REACTORS
330
C
102
}
330
C
100
AcDbDictionary
281
     1
  3
Standard
350
1ACA
  0
DICTIONARY
  5
E
102
{ACAD_REACTORS
330
C
102
}
330
C
100
AcDbDictionary
281
     1
  3
STANDARD
350
13
  0
DICTIONARY
  5
E51
102
{ACAD_REACTORS
330
C
102
}
330
C
100
AcDbDictionary
281
     1
  0
ACDBDICTIONARYWDFLT
  5
E4E
102
{ACAD_REACTORS
330
C
102
}
330
C
100
AcDbDictionary
281
     1
  3
Normal
350
E4F
100
AcDbDictionaryWithDefault
340
E4F
  0
DICTIONARY
  5
1AB7
102
{ACAD_REACTORS
330
C
102
}
330
C
100
AcDbDictionary
281
     1
  3
A0
350
1AB8
  3
A1
350
1AB9
  3
A2
350
1ABA
  3
A3
350
1ABB
  3
A4
350
1ABC
  3
A5
350
1ABD
  3
A6
350
1ABE
  3
A7
350
1ABF
  3
A8
350
1AC0
  3
A9
350
1AC1
  3
B0
350
1AC2
  3
B1
350
1AC3
  3
B2
350
1AC4
  3
B3
350
1AC5
  3
B4
350
1AC6
  3
B5
350
1AC7
  3
B6
350
1AC8
  0
DICTIONARY
  5
1ACB
102
{ACAD_REACTORS
330
C
102
}
330
C
100
AcDbDictionary
281
     1
  3
Imperial24
350
1ACC
  3
Metric50
350
1AEC
  0
DICTIONARY
  5
1AB5
102
{ACAD_REACTORS
330
C
102
}
330
C
100
AcDbDictionary
281
     1
  3
Standard
350
1AB6
  0
DICTIONARY
  5
1A9B
102
{ACAD_REACTORS
330
C
102
}
330
C
100
AcDbDictionary
281
     1
  3
2dWireframe
350
1AA1
  3
Basic
350
1AA0
  3
Brighten
350
1AA7
  3
ColorChange
350
1AAB
  3
Conceptual
350
1AA4
  3
Dim
350
1AA6
  3
EdgeColorOff
350
1AB3
  3
Facepattern
350
1AAA
  3
Flat
350
1A9C
  3
FlatWithEdges
350
1A9D
  3
Gouraud
350
1A9E
  3
GouraudWithEdges
350
1A9F
  3
Hidden
350
1AA3
  3
JitterOff
350
1AB1
  3
Linepattern
350
1AA9
  3
OverhangOff
350
1AB2
  3
Realistic
350
1AA5
  3
Shaded
350
1AB0
  3
Shaded with edges
350
1AAF
  3
Shades of Gray
350
1AAC
  3
Sketchy
350
1AAD
  3
Thicken
350
1AA8
  3
Wireframe
350
1AA2
  3
X-Ray
350
1AAE
  0
XRECORD
  5
3683
102
{ACAD_REACTORS
330
C
102
}
330
C
100
AcDbXrecord
280
     1
 90
        1
330
1AB6
330
1B05
330
1B10
330
3110
330
3133
330
3144
330
3155
330
3166
330
3177
330
3188
330
3199
330
31AA
330
31BB
330
31CC
330
31E6
330
31F9
330
3213
  0
DICTIONARY
  5
1A7E
102
{ACAD_REACTORS
330
C
102
}
330
C
100
AcDbDictionary
281
     1
  3
CANNOSCALE
350
1B26
  3
CMLEADERSTYLE
350
1B22
  3
CTABLESTYLE
350
1B21
  3
CVIEWDETAILSTYLE
350
1B23
  3
CVIEWSECTIONSTYLE
350
1B24
  3
DIMASSOC
350
1A7F
  3
INDEXCTL
350
244A
  3
LAYEREVAL
350
1B28
  3
LAYERNOTIFY
350
1B29
  3
LIGHTINGUNITS
350
1B27
  3
MSLTSCALE
350
1B25
  3
SORTENTS
350
2449
  3
XCLIPFRAME
350
367E
  0
DICTIONARY
  5
1B03
102
{ACAD_REACTORS
330
C
102
}
330
C
100
AcDbDictionary
281
     1
  0
XRECORD
  5
3684
102
{ACAD_REACTORS
330
C
102
}
330
C
100
AcDbXrecord
280
     1
  1
DWGPROPS COOKIE
  2

  3

  4

  6

  7

  8
43170160
  9

300
=
301
=
302
=
303
=
304
=
305
=
306
=
307
=
308
=
309
=
 40
0.0181747337962963
 41
2440588.749988426
 42
2459271.907280093
  1

 90
        0
  0
DICTIONARY
  5
1AEB
102
{ACAD_REACTORS
330
1AEA
102
}
330
1AEA
100
AcDbDictionary
281
     1
  0
XRECORD
  5
23F3
102
{ACAD_REACTORS
330
23F2
102
}
330
23F2
100
AcDbXrecord
280
     1
290
     1
  0
XRECORD
  5
23F5
102
{ACAD_REACTORS
330
23F4
102
}
330
23F4
100
AcDbXrecord
280
     1
290
     1
  0
XRECORD
  5
23F8
102
{ACAD_REACTORS
330
1AE2
102
}
330
1AE2
100
AcDbXrecord
280
     1
290
     1
  0
XRECORD
  5
3682
102
{ACAD_REACTORS
330
3681
102
}
330
3681
100
AcDbXrecord
280
     1
 70
     1
340
1AB8
340
1AE1
 70
    -1
  0
SORTENTSTABLE
  5
2346
102
{ACAD_REACTORS
330
2345
102
}
330
2345
100
AcDbSortentsTable
330
1E
  0
DICTIONARY
  5
1B07
102
{ACAD_REACTORS
330
1B06
102
}
330
1B06
100
AcDbDictionary
281
     1
  3
ACDB_ANNOTATIONSCALES
350
1B08
  0
DICTIONARY
  5
1B12
102
{ACAD_REACTORS
330
1B11
102
}
330
1B11
100
AcDbDictionary
281
     1
  3
ACDB_ANNOTATIONSCALES
350
1B13
  0
DICTIONARY
  5
3112
102
{ACAD_REACTORS
330
3111
102
}
330
3111
100
AcDbDictionary
281
     1
  3
ACDB_ANNOTATIONSCALES
350
3113
  0
DICTIONARY
  5
3135
102
{ACAD_REACTORS
330
3134
102
}
330
3134
100
AcDbDictionary
281
     1
  3
ACDB_ANNOTATIONSCALES
350
3136
  0
DICTIONARY
  5
3146
102
{ACAD_REACTORS
330
3145
102
}
330
3145
100
AcDbDictionary
281
     1
  3
ACDB_ANNOTATIONSCALES
350
3147
  0
DICTIONARY
  5
3157
102
{ACAD_REACTORS
330
3156
102
}
330
3156
100
AcDbDictionary
281
     1
  3
ACDB_ANNOTATIONSCALES
350
3158
  0
DICTIONARY
  5
3168
102
{ACAD_REACTORS
330
3167
102
}
330
3167
100
AcDbDictionary
281
     1
  3
ACDB_ANNOTATIONSCALES
350
3169
  0
DICTIONARY
  5
3179
102
{ACAD_REACTORS
330
3178
102
}
330
3178
100
AcDbDictionary
281
     1
  3
ACDB_ANNOTATIONSCALES
350
317A
  0
DICTIONARY
  5
318A
102
{ACAD_REACTORS
330
3189
102
}
330
3189
100
AcDbDictionary
281
     1
  3
ACDB_ANNOTATIONSCALES
350
318B
  0
DICTIONARY
  5
319B
102
{ACAD_REACTORS
330
319A
102
}
330
319A
100
AcDbDictionary
281
     1
  3
ACDB_ANNOTATIONSCALES
350
319C
  0
DICTIONARY
  5
31AC
102
{ACAD_REACTORS
330
31AB
102
}
330
31AB
100
AcDbDictionary
281
     1
  3
ACDB_ANNOTATIONSCALES
350
31AD
  0
DICTIONARY
  5
31BD
102
{ACAD_REACTORS
330
31BC
102
}
330
31BC
100
AcDbDictionary
281
     1
  3
ACDB_ANNOTATIONSCALES
350
31BE
  0
DICTIONARY
  5
31CE
102
{ACAD_REACTORS
330
31CD
102
}
330
31CD
100
AcDbDictionary
281
     1
  3
ACDB_ANNOTATIONSCALES
350
31CF
  0
DICTIONARY
  5
31E8
102
{ACAD_REACTORS
330
31E7
102
}
330
31E7
100
AcDbDictionary
281
     1
  3
ACDB_ANNOTATIONSCALES
350
31E9
  0
DICTIONARY
  5
31FB
102
{ACAD_REACTORS
330
31FA
102
}
330
31FA
100
AcDbDictionary
281
     1
  3
ACDB_ANNOTATIONSCALES
350
31FC
  0
DICTIONARY
  5
3215
102
{ACAD_REACTORS
330
3214
102
}
330
3214
100
AcDbDictionary
281
     1
  3
ACDB_ANNOTATIONSCALES
350
3216
  0
ACDBDETAILVIEWSTYLE
  5
1ACE
102
{ACAD_XDICTIONARY
360
36C1
102
}
102
{ACAD_REACTORS
330
1ACD
102
}
330
1ACD
100
AcDbModelDocViewStyle
 70
     0
  3
Imperial24
290
     0
100
AcDbDetailViewStyle
 70
     0
 71
     0
 90
        3
 71
     1
340
10
 40
0.24
340
0
 40
0.24
300

 40
0.36
280
     3
 71
     2
340
17
 90
       25
 71
     3
340
10
 40
0.24
 90
        1
 40
0.75
 90
        1
300
%<\AcVar ViewType \f "%tc1">% %<\AcVar ViewDetailId>%\PSCALE %<\AcVar ViewScale \f "%sn">%
 71
     4
340
17
 90
       25
340
17
 90
       25
280
     0
  0
ACDBDETAILVIEWSTYLE
  5
1AED
102
{ACAD_XDICTIONARY
360
36C5
102
}
102
{ACAD_REACTORS
330
1ACD
102
}
330
1ACD
100
AcDbModelDocViewStyle
 70
     0
  3
Metric50
290
     0
100
AcDbDetailViewStyle
 70
     0
 71
     0
 90
        3
 71
     1
340
10
 40
5.0
340
0
 40
5.0
300

 40
0.0
280
     1
 71
     2
340
17
 90
       25
 71
     3
340
10
 40
5.0
 90
        0
 40
15.0
 90
        1
300
%<\AcVar ViewDetailId>% (%<\AcVar ViewScale \f "%sn">%)
 71
     4
340
17
 90
       25
340
17
 90
       25
280
     0
  0
LAYOUT
  5
E52
102
{ACAD_XDICTIONARY
360
3685
102
}
102
{ACAD_REACTORS
330
E50
102
}
330
E50
100
AcDbPlotSettings
  1

  2
Canon LBP-1910
  4

  6

 40
0.0
 41
0.0
 42
0.0
 43
0.0
 44
0.0
 45
0.0
 46
0.0
 47
0.0
 48
0.0
 49
0.0
140
0.0
141
0.0
142
1.0
143
1.0
 70
  1712
 72
     0
 73
     0
 74
     0
  7

 75
     0
147
1.0
148
0.0
149
0.0
100
AcDbLayout
  1
Model
 70
     1
 71
     0
 10
0.0
 20
0.0
 11
12.0
 21
9.0
 12
0.0
 22
0.0
 32
0.0
 14
0.0
 24
0.0
 34
0.0
 15
0.0
 25
0.0
 35
0.0
146
0.0
 13
0.0
 23
0.0
 33
0.0
 16
1.0
 26
0.0
 36
0.0
 17
0.0
 27
1.0
 37
0.0
 76
     0
330
1E
331
1A80
  0
LAYOUT
  5
E53
102
{ACAD_XDICTIONARY
360
3687
102
}
102
{ACAD_REACTORS
330
E50
102
}
330
E50
100
AcDbPlotSettings
  1

  2
Canon LBP-1910
  4

  6

 40
0.0
 41
0.0
 42
0.0
 43
0.0
 44
0.0
 45
0.0
 46
0.0
 47
0.0
 48
0.0
 49
0.0
140
0.0
141
0.0
142
1.0
143
1.0
 70
   688
 72
     0
 73
     0
 74
     5
  7

 75
    16
147
1.0
148
0.0
149
0.0
100
AcDbLayout
  1
\U+FF9A\U+FF72\U+FF71\U+FF73\U+FF841
 70
     1
 71
     1
 10
0.0
 20
0.0
 11
12.0
 21
9.0
 12
0.0
 22
0.0
 32
0.0
 14
1.000000000000000E+20
 24
1.000000000000000E+20
 34
1.000000000000000E+20
 15
-1.000000000000000E+20
 25
-1.000000000000000E+20
 35
-1.000000000000000E+20
146
0.0
 13
0.0
 23
0.0
 33
0.0
 16
1.0
 26
0.0
 36
0.0
 17
0.0
 27
1.0
 37
0.0
 76
     0
330
21
  0
MATERIAL
  5
1A8B
102
{ACAD_XDICTIONARY
360
1A8C
102
}
102
{ACAD_REACTORS
330
1A82
102
}
330
1A82
100
AcDbMaterial
  1
ByBlock
 72
     0
 43
0.0208333333333333
 43
0.0
 43
0.0
 43
0.0
 43
0.0
 43
0.0208333333333333
 43
0.0
 43
0.0
 43
0.0
 43
0.0
 43
1.0
 43
0.0
 43
0.0
 43
0.0
 43
0.0
 43
1.0
 77
     0
 47
0.0208333333333333
 47
0.0
 47
0.0
 47
0.0
 47
0.0
 47
0.0208333333333333
 47
0.0
 47
0.0
 47
0.0
 47
0.0
 47
1.0
 47
0.0
 47
0.0
 47
0.0
 47
0.0
 47
1.0
171
     0
 49
0.0208333333333333
 49
0.0
 49
0.0
 49
0.0
 49
0.0
 49
0.0208333333333333
 49
0.0
 49
0.0
 49
0.0
 49
0.0
 49
1.0
 49
0.0
 49
0.0
 49
0.0
 49
0.0
 49
1.0
175
     0
142
0.0208333333333333
142
0.0
142
0.0
142
0.0
142
0.0
142
0.0208333333333333
142
0.0
142
0.0
142
0.0
142
0.0
142
1.0
142
0.0
142
0.0
142
0.0
142
0.0
142
1.0
179
     0
144
0.0208333333333333
144
0.0
144
0.0
144
0.0
144
0.0
144
0.0208333333333333
144
0.0
144
0.0
144
0.0
144
0.0
144
1.0
144
0.0
144
0.0
144
0.0
144
0.0
144
1.0
147
0.0208333333333333
147
0.0
147
0.0
147
0.0
147
0.0
147
0.0208333333333333
147
0.0
147
0.0
147
0.0
147
0.0
147
1.0
147
0.0
147
0.0
147
0.0
147
0.0
147
1.0
  0
MATERIAL
  5
1A83
102
{ACAD_XDICTIONARY
360
1A84
102
}
102
{ACAD_REACTORS
330
1A82
102
}
330
1A82
100
AcDbMaterial
  1
ByLayer
 72
     0
 43
0.0208333333333333
 43
0.0
 43
0.0
 43
0.0
 43
0.0
 43
0.0208333333333333
 43
0.0
 43
0.0
 43
0.0
 43
0.0
 43
1.0
 43
0.0
 43
0.0
 43
0.0
 43
0.0
 43
1.0
 77
     0
 47
0.0208333333333333
 47
0.0
 47
0.0
 47
0.0
 47
0.0
 47
0.0208333333333333
 47
0.0
 47
0.0
 47
0.0
 47
0.0
 47
1.0
 47
0.0
 47
0.0
 47
0.0
 47
0.0
 47
1.0
171
     0
 49
0.0208333333333333
 49
0.0
 49
0.0
 49
0.0
 49
0.0
 49
0.0208333333333333
 49
0.0
 49
0.0
 49
0.0
 49
0.0
 49
1.0
 49
0.0
 49
0.0
 49
0.0
 49
0.0
 49
1.0
175
     0
142
0.0208333333333333
142
0.0
142
0.0
142
0.0
142
0.0
142
0.0208333333333333
142
0.0
142
0.0
142
0.0
142
0.0
142
1.0
142
0.0
142
0.0
142
0.0
142
0.0
142
1.0
179
     0
144
0.0208333333333333
144
0.0
144
0.0
144
0.0
144
0.0
144
0.0208333333333333
144
0.0
144
0.0
144
0.0
144
0.0
144
1.0
144
0.0
144
0.0
144
0.0
144
0.0
144
1.0
147
0.0208333333333333
147
0.0
147
0.0
147
0.0
147
0.0
147
0.0208333333333333
147
0.0
147
0.0
147
0.0
147
0.0
147
1.0
147
0.0
147
0.0
147
0.0
147
0.0
147
1.0
  0
MATERIAL
  5
1A93
102
{ACAD_XDICTIONARY
360
1A94
102
}
102
{ACAD_REACTORS
330
1A82
102
}
330
1A82
100
AcDbMaterial
  1
Global
 72
     0
 43
0.0208333333333333
 43
0.0
 43
0.0
 43
0.0
 43
0.0
 43
0.0208333333333333
 43
0.0
 43
0.0
 43
0.0
 43
0.0
 43
1.0
 43
0.0
 43
0.0
 43
0.0
 43
0.0
 43
1.0
 77
     0
 47
0.0208333333333333
 47
0.0
 47
0.0
 47
0.0
 47
0.0
 47
0.0208333333333333
 47
0.0
 47
0.0
 47
0.0
 47
0.0
 47
1.0
 47
0.0
 47
0.0
 47
0.0
 47
0.0
 47
1.0
171
     0
 49
0.0208333333333333
 49
0.0
 49
0.0
 49
0.0
 49
0.0
 49
0.0208333333333333
 49
0.0
 49
0.0
 49
0.0
 49
0.0
 49
1.0
 49
0.0
 49
0.0
 49
0.0
 49
0.0
 49
1.0
175
     0
142
0.0208333333333333
142
0.0
142
0.0
142
0.0
142
0.0
142
0.0208333333333333
142
0.0
142
0.0
142
0.0
142
0.0
142
1.0
142
0.0
142
0.0
142
0.0
142
0.0
142
1.0
179
     0
144
0.0208333333333333
144
0.0
144
0.0
144
0.0
144
0.0
144
0.0208333333333333
144
0.0
144
0.0
144
0.0
144
0.0
144
1.0
144
0.0
144
0.0
144
0.0
144
0.0
144
1.0
147
0.0208333333333333
147
0.0
147
0.0
147
0.0
147
0.0
147
0.0208333333333333
147
0.0
147
0.0
147
0.0
147
0.0
147
1.0
147
0.0
147
0.0
147
0.0
147
0.0
147
1.0
  0
MLEADERSTYLE
  5
1ACA
102
{ACAD_XDICTIONARY
360
36BD
102
}
102
{ACAD_REACTORS
330
1AC9
102
}
330
1AC9
100
AcDbMLeaderStyle
170
     2
171
     1
172
     0
 90
        2
 40
0.0
 41
0.0
173
     1
 91
-1056964608
340
15
 92
       -2
290
     1
 42
0.09
291
     1
 43
0.36
  3
Standard
 44
0.18
300

342
10
174
     1
178
     6
175
     1
176
     0
 93
-1056964608
 45
0.18
292
     0
297
     0
 46
0.18
 94
-1056964608
 47
1.0
 49
1.0
140
1.0
293
     1
141
0.0
294
     1
177
     0
142
1.0
295
     0
296
     0
143
0.125
1001
ACAD_MLEADERVER
1070
     2
  0
MLINESTYLE
  5
13
102
{ACAD_REACTORS
330
E
102
}
330
E
100
AcDbMlineStyle
  2
STANDARD
 70
     0
  3

 62
     0
 51
90.0
 52
90.0
 71
     2
 49
0.5
 62
   256
  6
BYLAYER
 49
-0.5
 62
   256
  6
BYLAYER
  0
ACDBPLACEHOLDER
  5
E4F
102
{ACAD_REACTORS
330
E4E
102
}
330
E4E
  0
SCALE
  5
1AB8
102
{ACAD_REACTORS
330
1AB7
102
}
330
1AB7
100
AcDbScale
 70
     0
300
1:1
140
1.0
141
1.0
290
     1
  0
SCALE
  5
1AB9
102
{ACAD_REACTORS
330
1AB7
102
}
330
1AB7
100
AcDbScale
 70
     0
300
1/128" = 1'-0"
140
0.0078125
141
12.0
290
     0
  0
SCALE
  5
1ABA
102
{ACAD_REACTORS
330
1AB7
102
}
330
1AB7
100
AcDbScale
 70
     0
300
1/64" = 1'-0"
140
0.015625
141
12.0
290
     0
  0
SCALE
  5
1ABB
102
{ACAD_REACTORS
330
1AB7
102
}
330
1AB7
100
AcDbScale
 70
     0
300
1/32" = 1'-0"
140
0.03125
141
12.0
290
     0
  0
SCALE
  5
1ABC
102
{ACAD_REACTORS
330
1AB7
102
}
330
1AB7
100
AcDbScale
 70
     0
300
1/16" = 1'-0"
140
0.0625
141
12.0
290
     0
  0
SCALE
  5
1ABD
102
{ACAD_REACTORS
330
1AB7
102
}
330
1AB7
100
AcDbScale
 70
     0
300
3/32" = 1'-0"
140
0.09375
141
12.0
290
     0
  0
SCALE
  5
1ABE
102
{ACAD_REACTORS
330
1AB7
102
}
330
1AB7
100
AcDbScale
 70
     0
300
1/8" = 1'-0"
140
0.125
141
12.0
290
     0
  0
SCALE
  5
1ABF
102
{ACAD_REACTORS
330
1AB7
102
}
330
1AB7
100
AcDbScale
 70
     0
300
3/16" = 1'-0"
140
0.1875
141
12.0
290
     0
  0
SCALE
  5
1AC0
102
{ACAD_REACTORS
330
1AB7
102
}
330
1AB7
100
AcDbScale
 70
     0
300
1/4" = 1'-0"
140
0.25
141
12.0
290
     0
  0
SCALE
  5
1AC1
102
{ACAD_REACTORS
330
1AB7
102
}
330
1AB7
100
AcDbScale
 70
     0
300
3/8" = 1'-0"
140
0.375
141
12.0
290
     0
  0
SCALE
  5
1AC2
102
{ACAD_REACTORS
330
1AB7
102
}
330
1AB7
100
AcDbScale
 70
     0
300
1/2" = 1'-0"
140
0.5
141
12.0
290
     0
  0
SCALE
  5
1AC3
102
{ACAD_REACTORS
330
1AB7
102
}
330
1AB7
100
AcDbScale
 70
     0
300
3/4" = 1'-0"
140
0.75
141
12.0
290
     0
  0
SCALE
  5
1AC4
102
{ACAD_REACTORS
330
1AB7
102
}
330
1AB7
100
AcDbScale
 70
     0
300
1" = 1'-0"
140
1.0
141
12.0
290
     0
  0
SCALE
  5
1AC5
102
{ACAD_REACTORS
330
1AB7
102
}
330
1AB7
100
AcDbScale
 70
     0
300
1-1/2" = 1'-0"
140
1.5
141
12.0
290
     0
  0
SCALE
  5
1AC6
102
{ACAD_REACTORS
330
1AB7
102
}
330
1AB7
100
AcDbScale
 70
     0
300
3" = 1'-0"
140
3.0
141
12.0
290
     0
  0
SCALE
  5
1AC7
102
{ACAD_REACTORS
330
1AB7
102
}
330
1AB7
100
AcDbScale
 70
     0
300
6" = 1'-0"
140
6.0
141
12.0
290
     0
  0
SCALE
  5
1AC8
102
{ACAD_REACTORS
330
1AB7
102
}
330
1AB7
100
AcDbScale
 70
     0
300
1'-0" = 1'-0"
140
12.0
141
12.0
290
     0
  0
ACDBSECTIONVIEWSTYLE
  5
1ACC
102
{ACAD_XDICTIONARY
360
36BF
102
}
102
{ACAD_REACTORS
330
1ACB
102
}
330
1ACB
100
AcDbModelDocViewStyle
 70
     0
  3
Imperial24
290
     0
100
AcDbSectionViewStyle
 70
     0
 71
     0
 90
       78
 71
     1
340
10
 40
0.24
340
0
340
0
 40
0.24
300
I, O, Q, S, X, Z
 40
0.48
 90
        3
 40
0.18
 90
        1
 71
     2
340
17
 90
       25
340
17
 90
       50
 40
0.24
 40
0.0
 40
0.24
 71
     3
340
10
 40
0.24
 90
        1
 40
0.75
 90
        1
300
%<\AcVar ViewType \f "%tc1">% %<\AcVar ViewSectionStartId>%-%<\AcVar ViewSectionEndId>%\PSCALE %<\AcVar ViewScale \f "%sn">%
 71
     4
300
ANSI31
 40
1.0
 90
        0
290
     0
290
     0
 90
        6
 40
0.0
 40
1.570796326794896
 40
0.2617993877991494
 40
1.308996938995747
 40
-0.2617993877991494
 40
1.832595714594046
  0
ACDBSECTIONVIEWSTYLE
  5
1AEC
102
{ACAD_XDICTIONARY
360
36C3
102
}
102
{ACAD_REACTORS
330
1ACB
102
}
330
1ACB
100
AcDbModelDocViewStyle
 70
     0
  3
Metric50
290
     0
100
AcDbSectionViewStyle
 70
     0
 71
     0
 90
      102
 71
     1
340
10
 40
5.0
340
0
340
0
 40
5.0
300
I, O, Q, S, X, Z
 40
10.0
 90
        0
 40
2.5
 90
        0
 71
     2
340
17
 90
       25
340
17
 90
       50
 40
5.0
 40
2.5
 40
5.0
 71
     3
340
10
 40
5.0
 90
        0
 40
15.0
 90
        1
300
%<\AcVar ViewSectionStartId>%-%<\AcVar ViewSectionEndId>% (%<\AcVar ViewScale \f "%sn">%)
 71
     4
300
ANSI31
 40
1.0
 90
        0
290
     0
290
     0
 90
        6
 40
0.0
 40
1.570796326794896
 40
0.2617993877991494
 40
1.308996938995747
 40
-0.2617993877991494
 40
1.832595714594046
  0
TABLESTYLE
  5
1AB6
102
{ACAD_XDICTIONARY
360
23F9
102
}
102
{ACAD_REACTORS
330
1AB5
102
}
330
1AB5
100
AcDbTableStyle
  3
Standard
 70
     0
 71
     0
 40
0.06
 41
0.06
280
     0
281
     0
  7
STANDARD
140
0.18
170
     2
 62
     0
 63
     7
283
     0
274
    -2
284
     1
 64
     0
275
    -2
285
     1
 65
     0
276
    -2
286
     1
 66
     0
277
    -2
287
     1
 67
     0
278
    -2
288
     1
 68
     0
279
    -2
289
     1
 69
     0
  7
STANDARD
140
0.25
170
     5
 62
     0
 63
     7
283
     0
274
    -2
284
     1
 64
     0
275
    -2
285
     1
 65
     0
276
    -2
286
     1
 66
     0
277
    -2
287
     1
 67
     0
278
    -2
288
     1
 68
     0
279
    -2
289
     1
 69
     0
  7
STANDARD
140
0.18
170
     5
 62
     0
 63
     7
283
     0
274
    -2
284
     1
 64
     0
275
    -2
285
     1
 65
     0
276
    -2
286
     1
 66
     0
277
    -2
287
     1
 67
     0
278
    -2
288
     1
 68
     0
279
    -2
289
     1
 69
     0
  0
VISUALSTYLE
  5
1AA1
102
{ACAD_XDICTIONARY
360
3696
102
}
102
{ACAD_REACTORS
330
1A9B
102
}
330
1A9B
100
AcDbVisualStyle
  2
2dWireframe
 70
     4
 71
     0
 72
     2
 73
     0
 90
        0
 40
-0.6
 41
-30.0
 62
     5
 63
     7
 74
     1
 91
        4
 64
     7
 65
   257
 75
     1
175
     1
 42
1.0
 92
        0
 66
   257
 43
1.0
 76
     1
 77
     6
 78
     2
 67
     7
 79
     5
170
     0
171
     0
290
     0
174
     0
 93
        1
 44
0.0
173
     0
291
     0
 45
0.0
1001
ACAD
1000
AcDbSavedByObjectVersion
1070
     0
  0
VISUALSTYLE
  5
1AA0
102
{ACAD_XDICTIONARY
360
3694
102
}
102
{ACAD_REACTORS
330
1A9B
102
}
330
1A9B
100
AcDbVisualStyle
  2
Basic
 70
     7
 71
     1
 72
     0
 73
     1
 90
        0
 40
-0.6
 41
-30.0
 62
     5
 63
     7
 74
     0
 91
        4
 64
     7
 65
   257
 75
     1
175
     1
 42
1.0
 92
        8
 66
     7
 43
1.0
 76
     1
 77
     6
 78
     2
 67
     7
 79
     5
170
     0
171
     0
290
     0
174
     0
 93
        1
 44
0.0
173
     0
291
     1
 45
0.0
1001
ACAD
1000
AcDbSavedByObjectVersion
1070
     0
  0
VISUALSTYLE
  5
1AA7
102
{ACAD_XDICTIONARY
360
36A2
102
}
102
{ACAD_REACTORS
330
1A9B
102
}
330
1A9B
100
AcDbVisualStyle
  2
Brighten
 70
    12
 71
     2
 72
     2
 73
     0
 90
        0
 40
-0.6
 41
-30.0
 62
     5
 63
     7
 74
     1
 91
        4
 64
     7
 65
   257
 75
     1
175
     1
 42
1.0
 92
        8
 66
     7
 43
1.0
 76
     1
 77
     6
 78
     2
 67
     7
 79
     5
170
     0
171
     0
290
     0
174
     0
 93
        1
 44
50.0
173
     0
291
     1
 45
0.0
1001
ACAD
1000
AcDbSavedByObjectVersion
1070
     0
  0
VISUALSTYLE
  5
1AAB
102
{ACAD_XDICTIONARY
360
36AA
102
}
102
{ACAD_REACTORS
330
1A9B
102
}
330
1A9B
100
AcDbVisualStyle
  2
ColorChange
 70
    16
 71
     2
 72
     2
 73
     3
 90
        0
 40
-0.6
 41
-30.0
 62
     5
 63
     8
 74
     1
 91
        4
 64
     7
 65
   257
 75
     1
175
     1
 42
1.0
 92
        8
 66
     8
 43
1.0
 76
     1
 77
     6
 78
     2
 67
     7
 79
     5
170
     0
171
     0
290
     0
174
     0
 93
        1
 44
0.0
173
     0
291
     1
 45
0.0
1001
ACAD
1000
AcDbSavedByObjectVersion
1070
     0
  0
VISUALSTYLE
  5
1AA4
102
{ACAD_XDICTIONARY
360
369C
102
}
102
{ACAD_REACTORS
330
1A9B
102
}
330
1A9B
100
AcDbVisualStyle
  2
Conceptual
 70
     9
 71
     3
 72
     2
 73
     0
 90
        0
 40
-0.6
 41
-30.0
 62
     5
 63
     7
 74
     2
 91
        2
 64
     7
 65
   257
 75
     1
175
     1
 42
179.0
 92
        8
 66
     7
 43
1.0
 76
     1
 77
     6
 78
     2
 67
     7
 79
     3
170
     0
171
     0
290
     0
174
     0
 93
        1
 44
0.0
173
     0
291
     0
 45
0.0
1001
ACAD
1000
AcDbSavedByObjectVersion
1070
     0
  0
VISUALSTYLE
  5
1AA6
102
{ACAD_XDICTIONARY
360
36A0
102
}
102
{ACAD_REACTORS
330
1A9B
102
}
330
1A9B
100
AcDbVisualStyle
  2
Dim
 70
    11
 71
     2
 72
     2
 73
     0
 90
        0
 40
-0.6
 41
-30.0
 62
     5
 63
     7
 74
     1
 91
        4
 64
     7
 65
   257
 75
     1
175
     1
 42
1.0
 92
        8
 66
     7
 43
1.0
 76
     1
 77
     6
 78
     2
 67
     7
 79
     5
170
     0
171
     0
290
     0
174
     0
 93
        1
 44
-50.0
173
     0
291
     1
 45
0.0
1001
ACAD
1000
AcDbSavedByObjectVersion
1070
     0
  0
VISUALSTYLE
  5
1AB3
102
{ACAD_XDICTIONARY
360
36BA
102
}
102
{ACAD_REACTORS
330
1A9B
102
}
330
1A9B
100
AcDbVisualStyle
  2
EdgeColorOff
 70
    22
 71
     2
 72
     2
 73
     0
 90
        0
 40
-0.6
 41
-30.0
 62
     5
 63
     7
 74
     1
 91
        4
 64
     7
 65
   257
 75
     1
175
     1
 42
1.0
 92
        8
 66
     7
 43
1.0
 76
     1
 77
     6
 78
     2
 67
     7
 79
     5
170
     0
171
     0
290
     0
174
     0
 93
        1
 44
0.0
173
     0
291
     1
 45
0.0
1001
ACAD
1000
AcDbSavedByObjectVersion
1070
     0
  0
VISUALSTYLE
  5
1AAA
102
{ACAD_XDICTIONARY
360
36A8
102
}
102
{ACAD_REACTORS
330
1A9B
102
}
330
1A9B
100
AcDbVisualStyle
  2
Facepattern
 70
    15
 71
     2
 72
     2
 73
     0
 90
        0
 40
-0.6
 41
-30.0
 62
     5
 63
     7
 74
     1
 91
        4
 64
     7
 65
   257
 75
     1
175
     1
 42
1.0
 92
        8
 66
     7
 43
1.0
 76
     1
 77
     6
 78
     2
 67
     7
 79
     5
170
     0
171
     0
290
     0
174
     0
 93
        1
 44
0.0
173
     0
291
     1
 45
0.0
1001
ACAD
1000
AcDbSavedByObjectVersion
1070
     0
  0
VISUALSTYLE
  5
1A9C
102
{ACAD_XDICTIONARY
360
368C
102
}
102
{ACAD_REACTORS
330
1A9B
102
}
330
1A9B
100
AcDbVisualStyle
  2
Flat
 70
     0
 71
     2
 72
     1
 73
     1
 90
        2
 40
-0.6
 41
30.0
 62
     5
 63
     7
 74
     0
 91
        0
 64
     7
 65
   257
 75
     1
175
     1
 42
1.0
 92
        8
 66
     7
 43
1.0
 76
     1
 77
     6
 78
     2
 67
     7
 79
     5
170
     0
171
     0
290
     0
174
     0
 93
       13
 44
0.0
173
     0
291
     1
 45
0.0
1001
ACAD
1000
AcDbSavedByObjectVersion
1070
     0
  0
VISUALSTYLE
  5
1A9D
102
{ACAD_XDICTIONARY
360
368E
102
}
102
{ACAD_REACTORS
330
1A9B
102
}
330
1A9B
100
AcDbVisualStyle
  2
FlatWithEdges
 70
     1
 71
     2
 72
     1
 73
     1
 90
        2
 40
-0.6
 41
30.0
 62
     5
 63
     7
 74
     1
 91
        0
 64
     7
 65
   257
 75
     1
175
     1
 42
1.0
 92
        0
 66
   257
 43
1.0
 76
     1
 77
     6
 78
     2
 67
     7
 79
     5
170
     0
171
     0
290
     0
174
     0
 93
       13
 44
0.0
173
     0
291
     1
 45
0.0
1001
ACAD
1000
AcDbSavedByObjectVersion
1070
     0
  0
VISUALSTYLE
  5
1A9E
102
{ACAD_XDICTIONARY
360
3690
102
}
102
{ACAD_REACTORS
330
1A9B
102
}
330
1A9B
100
AcDbVisualStyle
  2
Gouraud
 70
     2
 71
     2
 72
     2
 73
     1
 90
        2
 40
-0.6
 41
30.0
 62
     5
 63
     7
 74
     0
 91
        0
 64
     7
 65
   257
 75
     1
175
     1
 42
1.0
 92
        0
 66
     7
 43
1.0
 76
     1
 77
     6
 78
     2
 67
     7
 79
     5
170
     0
171
     0
290
     0
174
     0
 93
       13
 44
0.0
173
     0
291
     1
 45
0.0
1001
ACAD
1000
AcDbSavedByObjectVersion
1070
     0
  0
VISUALSTYLE
  5
1A9F
102
{ACAD_XDICTIONARY
360
3692
102
}
102
{ACAD_REACTORS
330
1A9B
102
}
330
1A9B
100
AcDbVisualStyle
  2
GouraudWithEdges
 70
     3
 71
     2
 72
     2
 73
     1
 90
        2
 40
-0.6
 41
30.0
 62
     5
 63
     7
 74
     1
 91
        0
 64
     7
 65
   257
 75
     1
175
     1
 42
1.0
 92
        0
 66
   257
 43
1.0
 76
     1
 77
     6
 78
     2
 67
     7
 79
     5
170
     0
171
     0
290
     0
174
     0
 93
       13
 44
0.0
173
     0
291
     1
 45
0.0
1001
ACAD
1000
AcDbSavedByObjectVersion
1070
     0
  0
VISUALSTYLE
  5
1AA3
102
{ACAD_XDICTIONARY
360
369A
102
}
102
{ACAD_REACTORS
330
1A9B
102
}
330
1A9B
100
AcDbVisualStyle
  2
Hidden
 70
     6
 71
     1
 72
     2
 73
     2
 90
        0
 40
-0.6
 41
-30.0
 62
     5
 63
     7
 74
     2
 91
        2
 64
     7
 65
   257
 75
     2
175
     1
 42
40.0
 92
        0
 66
   257
 43
1.0
 76
     1
 77
     6
 78
     2
 67
     7
 79
     3
170
     0
171
     0
290
     0
174
     0
 93
        1
 44
0.0
173
     0
291
     0
 45
0.0
1001
ACAD
1000
AcDbSavedByObjectVersion
1070
     0
  0
VISUALSTYLE
  5
1AB1
102
{ACAD_XDICTIONARY
360
36B6
102
}
102
{ACAD_REACTORS
330
1A9B
102
}
330
1A9B
100
AcDbVisualStyle
  2
JitterOff
 70
    20
 71
     2
 72
     2
 73
     0
 90
        0
 40
-0.6
 41
-30.0
 62
     5
 63
     7
 74
     1
 91
        4
 64
     7
 65
   257
 75
     1
175
     1
 42
1.0
 92
       10
 66
     7
 43
1.0
 76
     1
 77
     6
 78
     2
 67
     7
 79
     5
170
     0
171
     0
290
     0
174
     0
 93
        1
 44
0.0
173
     0
291
     1
 45
0.0
1001
ACAD
1000
AcDbSavedByObjectVersion
1070
     0
  0
VISUALSTYLE
  5
1AA9
102
{ACAD_XDICTIONARY
360
36A6
102
}
102
{ACAD_REACTORS
330
1A9B
102
}
330
1A9B
100
AcDbVisualStyle
  2
Linepattern
 70
    14
 71
     2
 72
     2
 73
     0
 90
        0
 40
-0.6
 41
-30.0
 62
     5
 63
     7
 74
     1
 91
        4
 64
     7
 65
   257
 75
     7
175
     7
 42
1.0
 92
        8
 66
     7
 43
1.0
 76
     1
 77
     6
 78
     2
 67
     7
 79
     5
170
     0
171
     0
290
     0
174
     0
 93
        1
 44
0.0
173
     0
291
     1
 45
0.0
1001
ACAD
1000
AcDbSavedByObjectVersion
1070
     0
  0
VISUALSTYLE
  5
1AB2
102
{ACAD_XDICTIONARY
360
36B8
102
}
102
{ACAD_REACTORS
330
1A9B
102
}
330
1A9B
100
AcDbVisualStyle
  2
OverhangOff
 70
    21
 71
     2
 72
     2
 73
     0
 90
        0
 40
-0.6
 41
-30.0
 62
     5
 63
     7
 74
     1
 91
        4
 64
     7
 65
   257
 75
     1
175
     1
 42
1.0
 92
        9
 66
     7
 43
1.0
 76
     1
 77
     6
 78
     2
 67
     7
 79
     5
170
     0
171
     0
290
     0
174
     0
 93
        1
 44
0.0
173
     0
291
     1
 45
0.0
1001
ACAD
1000
AcDbSavedByObjectVersion
1070
     0
  0
VISUALSTYLE
  5
1AA5
102
{ACAD_XDICTIONARY
360
369E
102
}
102
{ACAD_REACTORS
330
1A9B
102
}
330
1A9B
100
AcDbVisualStyle
  2
Realistic
 70
     8
 71
     2
 72
     2
 73
     0
 90
        2
 40
-0.6
 41
30.0
 62
     5
 63
     7
 74
     0
 91
        0
 64
     7
 65
   257
 75
     1
175
     1
 42
1.0
 92
        8
 66
   257
 43
1.0
 76
     1
 77
     6
 78
     2
 67
     7
 79
     3
170
     0
171
     0
290
     0
174
     0
 93
       13
 44
0.0
173
     0
291
     0
 45
0.0
1001
ACAD
1000
AcDbSavedByObjectVersion
1070
     0
  0
VISUALSTYLE
  5
1AB0
102
{ACAD_XDICTIONARY
360
36B4
102
}
102
{ACAD_REACTORS
330
1A9B
102
}
330
1A9B
100
AcDbVisualStyle
  2
Shaded
 70
    27
 71
     2
 72
     2
 73
     1
 90
        2
 40
-0.6
 41
30.0
 62
     5
 63
     7
 74
     0
 91
        4
 64
     7
 65
   257
 75
     1
175
     1
 42
1.0
 92
        8
 66
   257
 43
1.0
 76
     1
 77
     6
 78
     2
 67
     8
 79
     3
170
     0
171
     0
290
     0
174
     0
 93
        5
 44
0.0
173
     0
291
     0
 45
0.0
1001
ACAD
1000
AcDbSavedByObjectVersion
1070
     0
  0
VISUALSTYLE
  5
1AAF
102
{ACAD_XDICTIONARY
360
36B2
102
}
102
{ACAD_REACTORS
330
1A9B
102
}
330
1A9B
100
AcDbVisualStyle
  2
Shaded with edges
 70
    26
 71
     2
 72
     2
 73
     1
 90
        2
 40
-0.6
 41
30.0
 62
     5
 63
     7
 74
     1
 91
        2
 64
     7
 65
   257
 75
     2
175
     1
 42
1.0
 92
        8
 66
   257
 43
1.0
 76
     1
 77
     6
 78
     2
 67
     7
 79
     3
170
     0
171
     0
290
     0
174
     0
 93
        5
 44
0.0
173
     0
291
     0
 45
0.0
1001
ACAD
1000
AcDbSavedByObjectVersion
1070
     0
  0
VISUALSTYLE
  5
1AAC
102
{ACAD_XDICTIONARY
360
36AC
102
}
102
{ACAD_REACTORS
330
1A9B
102
}
330
1A9B
100
AcDbVisualStyle
  2
Shades of Gray
 70
    23
 71
     2
 72
     2
 73
     3
 90
        0
 40
-0.6
 41
-30.0
 62
     5
 63
     7
 74
     2
 91
        2
 64
     7
 65
     7
 75
     1
175
     1
 42
40.0
 92
        8
 66
     7
 43
1.0
 76
     1
 77
     6
 78
     2
 67
     7
 79
     3
170
     0
171
     0
290
     0
174
     0
 93
        1
 44
0.0
173
     0
291
     0
 45
0.0
1001
ACAD
1000
AcDbSavedByObjectVersion
1070
     0
  0
VISUALSTYLE
  5
1AAD
102
{ACAD_XDICTIONARY
360
36AE
102
}
102
{ACAD_REACTORS
330
1A9B
102
}
330
1A9B
100
AcDbVisualStyle
  2
Sketchy
 70
    24
 71
     1
 72
     2
 73
     2
 90
        0
 40
-0.6
 41
-30.0
 62
     5
 63
     7
 74
     2
 91
        2
 64
     7
 65
     7
 75
     1
175
     1
 42
40.0
 92
       11
 66
     7
 43
1.0
 76
     1
 77
     6
 78
     2
 67
     7
 79
     6
170
     0
171
     0
290
     0
174
     0
 93
        1
 44
0.0
173
     0
291
     0
 45
0.0
1001
ACAD
1000
AcDbSavedByObjectVersion
1070
     0
  0
VISUALSTYLE
  5
1AA8
102
{ACAD_XDICTIONARY
360
36A4
102
}
102
{ACAD_REACTORS
330
1A9B
102
}
330
1A9B
100
AcDbVisualStyle
  2
Thicken
 70
    13
 71
     2
 72
     2
 73
     0
 90
        0
 40
-0.6
 41
-30.0
 62
     5
 63
     7
 74
     1
 91
        4
 64
     7
 65
   257
 75
     1
175
     1
 42
1.0
 92
       12
 66
     7
 43
1.0
 76
     1
 77
     6
 78
     2
 67
     7
 79
     5
170
     0
171
     0
290
     0
174
     0
 93
        1
 44
0.0
173
     0
291
     1
 45
0.0
1001
ACAD
1000
AcDbSavedByObjectVersion
1070
     0
  0
VISUALSTYLE
  5
1AA2
102
{ACAD_XDICTIONARY
360
3698
102
}
102
{ACAD_REACTORS
330
1A9B
102
}
330
1A9B
100
AcDbVisualStyle
  2
Wireframe
 70
     5
 71
     0
 72
     2
 73
     0
 90
        0
 40
-0.6
 41
-30.0
 62
     5
 63
     7
 74
     1
 91
        4
 64
     7
 65
   257
 75
     1
175
     1
 42
1.0
 92
        0
 66
   257
 43
1.0
 76
     1
 77
     6
 78
     2
 67
     7
 79
     3
170
     0
171
     0
290
     0
174
     0
 93
        1
 44
0.0
173
     0
291
     0
 45
0.0
1001
ACAD
1000
AcDbSavedByObjectVersion
1070
     0
  0
VISUALSTYLE
  5
1AAE
102
{ACAD_XDICTIONARY
360
36B0
102
}
102
{ACAD_REACTORS
330
1A9B
102
}
330
1A9B
100
AcDbVisualStyle
  2
X-Ray
 70
    25
 71
     2
 72
     2
 73
     1
 90
        1
 40
0.5
 41
-30.0
 62
     5
 63
     7
 74
     1
 91
        0
 64
     7
 65
   257
 75
     1
175
     1
 42
1.0
 92
        8
 66
     7
 43
1.0
 76
     1
 77
     6
 78
     2
 67
     7
 79
     3
170
     0
171
     0
290
     0
174
     0
 93
       13
 44
0.0
173
     0
291
     0
 45
0.0
1001
ACAD
1000
AcDbSavedByObjectVersion
1070
     0
  0
DICTIONARYVAR
  5
1B26
102
{ACAD_REACTORS
330
1A7E
102
}
330
1A7E
100
DictionaryVariables
280
     0
  1
1:1
  0
DICTIONARYVAR
  5
1B22
102
{ACAD_REACTORS
330
1A7E
102
}
330
1A7E
100
DictionaryVariables
280
     0
  1
STANDARD
  0
DICTIONARYVAR
  5
1B21
102
{ACAD_REACTORS
330
1A7E
102
}
330
1A7E
100
DictionaryVariables
280
     0
  1
STANDARD
  0
DICTIONARYVAR
  5
1B23
102
{ACAD_REACTORS
330
1A7E
102
}
330
1A7E
100
DictionaryVariables
280
     0
  1
Imperial24
  0
DICTIONARYVAR
  5
1B24
102
{ACAD_REACTORS
330
1A7E
102
}
330
1A7E
100
DictionaryVariables
280
     0
  1
Imperial24
  0
DICTIONARYVAR
  5
1A7F
102
{ACAD_REACTORS
330
1A7E
102
}
330
1A7E
100
DictionaryVariables
280
     0
  1
1
  0
DICTIONARYVAR
  5
244A
102
{ACAD_REACTORS
330
1A7E
102
}
330
1A7E
100
DictionaryVariables
280
     0
  1
0
  0
DICTIONARYVAR
  5
1B28
102
{ACAD_REACTORS
330
1A7E
102
}
330
1A7E
100
DictionaryVariables
280
     0
  1
1
  0
DICTIONARYVAR
  5
1B29
102
{ACAD_REACTORS
330
1A7E
102
}
330
1A7E
100
DictionaryVariables
280
     0
  1
15
  0
DICTIONARYVAR
  5
1B27
102
{ACAD_REACTORS
330
1A7E
102
}
330
1A7E
100
DictionaryVariables
280
     0
  1
0
  0
DICTIONARYVAR
  5
1B25
102
{ACAD_REACTORS
330
1A7E
102
}
330
1A7E
100
DictionaryVariables
280
     0
  1
0
  0
DICTIONARYVAR
  5
2449
102
{ACAD_REACTORS
330
1A7E
102
}
330
1A7E
100
DictionaryVariables
280
     0
  1
127
  0
DICTIONARYVAR
  5
367E
102
{ACAD_REACTORS
330
1A7E
102
}
330
1A7E
100
DictionaryVariables
280
     0
  1
2
  0
DICTIONARY
  5
1B08
102
{ACAD_REACTORS
330
1B07
102
}
330
1B07
100
AcDbDictionary
281
     1
  0
DICTIONARY
  5
1B13
102
{ACAD_REACTORS
330
1B12
102
}
330
1B12
100
AcDbDictionary
281
     1
  0
DICTIONARY
  5
3113
102
{ACAD_REACTORS
330
3112
102
}
330
3112
100
AcDbDictionary
281
     1
  0
DICTIONARY
  5
3136
102
{ACAD_REACTORS
330
3135
102
}
330
3135
100
AcDbDictionary
281
     1
  0
DICTIONARY
  5
3147
102
{ACAD_REACTORS
330
3146
102
}
330
3146
100
AcDbDictionary
281
     1
  0
DICTIONARY
  5
3158
102
{ACAD_REACTORS
330
3157
102
}
330
3157
100
AcDbDictionary
281
     1
  0
DICTIONARY
  5
3169
102
{ACAD_REACTORS
330
3168
102
}
330
3168
100
AcDbDictionary
281
     1
  0
DICTIONARY
  5
317A
102
{ACAD_REACTORS
330
3179
102
}
330
3179
100
AcDbDictionary
281
     1
  0
DICTIONARY
  5
318B
102
{ACAD_REACTORS
330
318A
102
}
330
318A
100
AcDbDictionary
281
     1
  0
DICTIONARY
  5
319C
102
{ACAD_REACTORS
330
319B
102
}
330
319B
100
AcDbDictionary
281
     1
  0
DICTIONARY
  5
31AD
102
{ACAD_REACTORS
330
31AC
102
}
330
31AC
100
AcDbDictionary
281
     1
  0
DICTIONARY
  5
31BE
102
{ACAD_REACTORS
330
31BD
102
}
330
31BD
100
AcDbDictionary
281
     1
  0
DICTIONARY
  5
31CF
102
{ACAD_REACTORS
330
31CE
102
}
330
31CE
100
AcDbDictionary
281
     1
  0
DICTIONARY
  5
31E9
102
{ACAD_REACTORS
330
31E8
102
}
330
31E8
100
AcDbDictionary
281
     1
  0
DICTIONARY
  5
31FC
102
{ACAD_REACTORS
330
31FB
102
}
330
31FB
100
AcDbDictionary
281
     1
  0
DICTIONARY
  5
3216
102
{ACAD_REACTORS
330
3215
102
}
330
3215
100
AcDbDictionary
281
     1
  0
DICTIONARY
  5
36C1
330
1ACE
100
AcDbDictionary
280
     1
281
     1
  3
ACAD_XREC_ROUNDTRIP
360
36C2
  0
DICTIONARY
  5
36C5
330
1AED
100
AcDbDictionary
280
     1
281
     1
  3
ACAD_XREC_ROUNDTRIP
360
36C6
  0
DICTIONARY
  5
3685
330
E52
100
AcDbDictionary
280
     1
281
     1
  3
ACAD_XREC_ROUNDTRIP
360
3686
  0
DICTIONARY
  5
3687
330
E53
100
AcDbDictionary
280
     1
281
     1
  3
ACAD_XREC_ROUNDTRIP
360
3688
  0
DICTIONARY
  5
1A8C
330
1A8B
100
AcDbDictionary
280
     1
281
     1
  3
ACAD_XREC_ROUNDTRIP
360
368A
  3
BUMPTILE
360
1A8E
  3
DIFFUSETILE
360
1A8D
  3
OPACITYTILE
360
1A91
  3
REFLECTIONTILE
360
1A90
  3
REFRACTIONTILE
360
1A92
  3
SPECULARTILE
360
1A8F
  0
DICTIONARY
  5
1A84
330
1A83
100
AcDbDictionary
280
     1
281
     1
  3
ACAD_XREC_ROUNDTRIP
360
3689
  3
BUMPTILE
360
1A86
  3
DIFFUSETILE
360
1A85
  3
OPACITYTILE
360
1A89
  3
REFLECTIONTILE
360
1A88
  3
REFRACTIONTILE
360
1A8A
  3
SPECULARTILE
360
1A87
  0
DICTIONARY
  5
1A94
330
1A93
100
AcDbDictionary
280
     1
281
     1
  3
ACAD_XREC_ROUNDTRIP
360
368B
  3
BUMPTILE
360
1A96
  3
DIFFUSETILE
360
1A95
  3
OPACITYTILE
360
1A99
  3
REFLECTIONTILE
360
1A98
  3
REFRACTIONTILE
360
1A9A
  3
SPECULARTILE
360
1A97
  0
DICTIONARY
  5
36BD
330
1ACA
100
AcDbDictionary
280
     1
281
     1
  3
ACAD_XREC_ROUNDTRIP
360
36BE
  0
DICTIONARY
  5
36BF
330
1ACC
100
AcDbDictionary
280
     1
281
     1
  3
ACAD_XREC_ROUNDTRIP
360
36C0
  0
DICTIONARY
  5
36C3
330
1AEC
100
AcDbDictionary
280
     1
281
     1
  3
ACAD_XREC_ROUNDTRIP
360
36C4
  0
DICTIONARY
  5
23F9
330
1AB6
100
AcDbDictionary
280
     1
281
     1
  3
ACAD_ROUNDTRIP_2008_TABLESTYLE_CELLSTYLEMAP
360
367F
  3
ACAD_XREC_ROUNDTRIP
360
36BC
  0
DICTIONARY
  5
3696
330
1AA1
100
AcDbDictionary
280
     1
281
     1
  3
ACAD_XREC_ROUNDTRIP
360
3697
  0
DICTIONARY
  5
3694
330
1AA0
100
AcDbDictionary
280
     1
281
     1
  3
ACAD_XREC_ROUNDTRIP
360
3695
  0
DICTIONARY
  5
36A2
330
1AA7
100
AcDbDictionary
280
     1
281
     1
  3
ACAD_XREC_ROUNDTRIP
360
36A3
  0
DICTIONARY
  5
36AA
330
1AAB
100
AcDbDictionary
280
     1
281
     1
  3
ACAD_XREC_ROUNDTRIP
360
36AB
  0
DICTIONARY
  5
369C
330
1AA4
100
AcDbDictionary
280
     1
281
     1
  3
ACAD_XREC_ROUNDTRIP
360
369D
  0
DICTIONARY
  5
36A0
330
1AA6
100
AcDbDictionary
280
     1
281
     1
  3
ACAD_XREC_ROUNDTRIP
360
36A1
  0
DICTIONARY
  5
36BA
330
1AB3
100
AcDbDictionary
280
     1
281
     1
  3
ACAD_XREC_ROUNDTRIP
360
36BB
  0
DICTIONARY
  5
36A8
330
1AAA
100
AcDbDictionary
280
     1
281
     1
  3
ACAD_XREC_ROUNDTRIP
360
36A9
  0
DICTIONARY
  5
368C
330
1A9C
100
AcDbDictionary
280
     1
281
     1
  3
ACAD_XREC_ROUNDTRIP
360
368D
  0
DICTIONARY
  5
368E
330
1A9D
100
AcDbDictionary
280
     1
281
     1
  3
ACAD_XREC_ROUNDTRIP
360
368F
  0
DICTIONARY
  5
3690
330
1A9E
100
AcDbDictionary
280
     1
281
     1
  3
ACAD_XREC_ROUNDTRIP
360
3691
  0
DICTIONARY
  5
3692
330
1A9F
100
AcDbDictionary
280
     1
281
     1
  3
ACAD_XREC_ROUNDTRIP
360
3693
  0
DICTIONARY
  5
369A
330
1AA3
100
AcDbDictionary
280
     1
281
     1
  3
ACAD_XREC_ROUNDTRIP
360
369B
  0
DICTIONARY
  5
36B6
330
1AB1
100
AcDbDictionary
280
     1
281
     1
  3
ACAD_XREC_ROUNDTRIP
360
36B7
  0
DICTIONARY
  5
36A6
330
1AA9
100
AcDbDictionary
280
     1
281
     1
  3
ACAD_XREC_ROUNDTRIP
360
36A7
  0
DICTIONARY
  5
36B8
330
1AB2
100
AcDbDictionary
280
     1
281
     1
  3
ACAD_XREC_ROUNDTRIP
360
36B9
  0
DICTIONARY
  5
369E
330
1AA5
100
AcDbDictionary
280
     1
281
     1
  3
ACAD_XREC_ROUNDTRIP
360
369F
  0
DICTIONARY
  5
36B4
330
1AB0
100
AcDbDictionary
280
     1
281
     1
  3
ACAD_XREC_ROUNDTRIP
360
36B5
  0
DICTIONARY
  5
36B2
330
1AAF
100
AcDbDictionary
280
     1
281
     1
  3
ACAD_XREC_ROUNDTRIP
360
36B3
  0
DICTIONARY
  5
36AC
330
1AAC
100
AcDbDictionary
280
     1
281
     1
  3
ACAD_XREC_ROUNDTRIP
360
36AD
  0
DICTIONARY
  5
36AE
330
1AAD
100
AcDbDictionary
280
     1
281
     1
  3
ACAD_XREC_ROUNDTRIP
360
36AF
  0
DICTIONARY
  5
36A4
330
1AA8
100
AcDbDictionary
280
     1
281
     1
  3
ACAD_XREC_ROUNDTRIP
360
36A5
  0
DICTIONARY
  5
3698
330
1AA2
100
AcDbDictionary
280
     1
281
     1
  3
ACAD_XREC_ROUNDTRIP
360
3699
  0
DICTIONARY
  5
36B0
330
1AAE
100
AcDbDictionary
280
     1
281
     1
  3
ACAD_XREC_ROUNDTRIP
360
36B1
  0
XRECORD
  5
36C2
102
{ACAD_REACTORS
330
36C1
102
}
330
36C1
100
AcDbXrecord
280
     1
102
DISPLAYNAME
  1
Imperial24
102
FLAGS
 90
        0
  0
XRECORD
  5
36C6
102
{ACAD_REACTORS
330
36C5
102
}
330
36C5
100
AcDbXrecord
280
     1
102
DISPLAYNAME
  1
Metric50
102
FLAGS
 90
        0
  0
XRECORD
  5
3686
102
{ACAD_REACTORS
330
3685
102
}
330
3685
100
AcDbXrecord
280
     1
102
SHADEPLOT
 70
     0
102
SHADEPLOTRESLEVEL
 70
     2
102
SHADEPLOTCUSTOMDPI
 70
   300
  0
XRECORD
  5
3688
102
{ACAD_REACTORS
330
3687
102
}
330
3687
100
AcDbXrecord
280
     1
102
SHADEPLOT
 70
     0
102
SHADEPLOTRESLEVEL
 70
     2
102
SHADEPLOTCUSTOMDPI
 70
   300
  0
XRECORD
  5
368A
102
{ACAD_REACTORS
330
1A8C
102
}
330
1A8C
100
AcDbXrecord
280
     1
102
MATERIAL
148
0.0
149
0.0
149
0.0
 93
        0
 94
      127
282
     0
 72
     0
 77
     0
171
     0
175
     0
179
     0
273
     0
  0
XRECORD
  5
1A8E
102
{ACAD_REACTORS
330
1A8C
102
}
330
1A8C
100
AcDbXrecord
280
     1
270
     1
271
     1
  0
XRECORD
  5
1A8D
102
{ACAD_REACTORS
330
1A8C
102
}
330
1A8C
100
AcDbXrecord
280
     1
270
     1
271
     1
  0
XRECORD
  5
1A91
102
{ACAD_REACTORS
330
1A8C
102
}
330
1A8C
100
AcDbXrecord
280
     1
270
     1
271
     1
  0
XRECORD
  5
1A90
102
{ACAD_REACTORS
330
1A8C
102
}
330
1A8C
100
AcDbXrecord
280
     1
270
     1
271
     1
  0
XRECORD
  5
1A92
102
{ACAD_REACTORS
330
1A8C
102
}
330
1A8C
100
AcDbXrecord
280
     1
270
     1
271
     1
  0
XRECORD
  5
1A8F
102
{ACAD_REACTORS
330
1A8C
102
}
330
1A8C
100
AcDbXrecord
280
     1
270
     1
271
     1
  0
XRECORD
  5
3689
102
{ACAD_REACTORS
330
1A84
102
}
330
1A84
100
AcDbXrecord
280
     1
102
MATERIAL
148
0.0
149
0.0
149
0.0
 93
        0
 94
      127
282
     0
 72
     0
 77
     0
171
     0
175
     0
179
     0
273
     0
  0
XRECORD
  5
1A86
102
{ACAD_REACTORS
330
1A84
102
}
330
1A84
100
AcDbXrecord
280
     1
270
     1
271
     1
  0
XRECORD
  5
1A85
102
{ACAD_REACTORS
330
1A84
102
}
330
1A84
100
AcDbXrecord
280
     1
270
     1
271
     1
  0
XRECORD
  5
1A89
102
{ACAD_REACTORS
330
1A84
102
}
330
1A84
100
AcDbXrecord
280
     1
270
     1
271
     1
  0
XRECORD
  5
1A88
102
{ACAD_REACTORS
330
1A84
102
}
330
1A84
100
AcDbXrecord
280
     1
270
     1
271
     1
  0
XRECORD
  5
1A8A
102
{ACAD_REACTORS
330
1A84
102
}
330
1A84
100
AcDbXrecord
280
     1
270
     1
271
     1
  0
XRECORD
  5
1A87
102
{ACAD_REACTORS
330
1A84
102
}
330
1A84
100
AcDbXrecord
280
     1
270
     1
271
     1
  0
XRECORD
  5
368B
102
{ACAD_REACTORS
330
1A94
102
}
330
1A94
100
AcDbXrecord
280
     1
102
MATERIAL
148
0.0
149
0.0
149
0.0
 93
        0
 94
      127
282
     0
 72
     0
 77
     0
171
     0
175
     0
179
     0
273
     0
  0
XRECORD
  5
1A96
102
{ACAD_REACTORS
330
1A94
102
}
330
1A94
100
AcDbXrecord
280
     1
270
     1
271
     1
  0
XRECORD
  5
1A95
102
{ACAD_REACTORS
330
1A94
102
}
330
1A94
100
AcDbXrecord
280
     1
270
     1
271
     1
  0
XRECORD
  5
1A99
102
{ACAD_REACTORS
330
1A94
102
}
330
1A94
100
AcDbXrecord
280
     1
270
     1
271
     1
  0
XRECORD
  5
1A98
102
{ACAD_REACTORS
330
1A94
102
}
330
1A94
100
AcDbXrecord
280
     1
270
     1
271
     1
  0
XRECORD
  5
1A9A
102
{ACAD_REACTORS
330
1A94
102
}
330
1A94
100
AcDbXrecord
280
     1
270
     1
271
     1
  0
XRECORD
  5
1A97
102
{ACAD_REACTORS
330
1A94
102
}
330
1A94
100
AcDbXrecord
280
     1
270
     1
271
     1
  0
XRECORD
  5
36BE
102
{ACAD_REACTORS
330
36BD
102
}
330
36BD
100
AcDbXrecord
280
     1
102
ACAD_ROUNDTRIP_2012_MLEADER_STYLE
298
     1
  0
XRECORD
  5
36C0
102
{ACAD_REACTORS
330
36BF
102
}
330
36BF
100
AcDbXrecord
280
     1
102
DISPLAYNAME
  1
Imperial24
102
FLAGS
 90
        0
  0
XRECORD
  5
36C4
102
{ACAD_REACTORS
330
36C3
102
}
330
36C3
100
AcDbXrecord
280
     1
102
DISPLAYNAME
  1
Metric50
102
FLAGS
 90
        0
  0
CELLSTYLEMAP
  5
367F
102
{ACAD_REACTORS
330
23F9
102
}
330
23F9
100
AcDbCellStyleMap
 90
        3
300
CELLSTYLE
  1
TABLEFORMAT_BEGIN
 90
        5
170
     1
 91
        0
 92
    32768
 62
   257
 93
        1
300
CONTENTFORMAT
  1
CONTENTFORMAT_BEGIN
 90
        0
 91
        0
 92
      512
 93
        0
300

 40
0.0
140
1.0
 94
        5
 62
     0
340
10
144
0.25
309
CONTENTFORMAT_END
171
     0
 94
        0
309
TABLEFORMAT_END
  1
CELLSTYLE_BEGIN
 90
        1
 91
        1
300
_TITLE
309
CELLSTYLE_END
300
CELLSTYLE
  1
TABLEFORMAT_BEGIN
 90
        5
170
     1
 91
        0
 92
        0
 62
   257
 93
        1
300
CONTENTFORMAT
  1
CONTENTFORMAT_BEGIN
 90
        0
 91
        0
 92
      512
 93
        0
300

 40
0.0
140
1.0
 94
        5
 62
     0
340
10
144
0.18
309
CONTENTFORMAT_END
171
     0
 94
        0
309
TABLEFORMAT_END
  1
CELLSTYLE_BEGIN
 90
        2
 91
        1
300
_HEADER
309
CELLSTYLE_END
300
CELLSTYLE
  1
TABLEFORMAT_BEGIN
 90
        5
170
     1
 91
        0
 92
        0
 62
   257
 93
        1
300
CONTENTFORMAT
  1
CONTENTFORMAT_BEGIN
 90
        0
 91
        0
 92
      512
 93
        0
300

 40
0.0
140
1.0
 94
        2
 62
     0
340
10
144
0.18
309
CONTENTFORMAT_END
171
     0
 94
        0
309
TABLEFORMAT_END
  1
CELLSTYLE_BEGIN
 90
        3
 91
        2
300
_DATA
309
CELLSTYLE_END
  0
XRECORD
  5
36BC
102
{ACAD_REACTORS
330
23F9
102
}
330
23F9
100
AcDbXrecord
280
     1
102
ACAD_ROUNDTRIP_PRE2007_TABLESTYLE
 90
      512
 91
        0
  1

 92
      512
 93
        0
  2

 94
      512
 95
        0
  3

  0
XRECORD
  5
3697
102
{ACAD_REACTORS
330
3696
102
}
330
3696
100
AcDbXrecord
280
     1
102
RTVSPost2010Prop28
280
     1
102
RTVSPost2010PropOp28
 70
     1
102
RTVSPost2010Prop29
280
     1
102
RTVSPost2010PropOp29
 70
     1
102
RTVSPost2010Prop30
280
     0
102
RTVSPost2010PropOp30
 70
     1
102
RTVSPost2010Prop31
280
     0
102
RTVSPost2010PropOp31
 70
     1
102
RTVSPost2010Prop32
280
     0
102
RTVSPost2010PropOp32
 70
     1
102
RTVSPost2010Prop33
280
     0
102
RTVSPost2010PropOp33
 70
     1
102
RTVSPost2010Prop34
280
     0
102
RTVSPost2010PropOp34
 70
     1
102
RTVSPost2010Prop35
280
     0
102
RTVSPost2010PropOp35
 70
     1
102
RTVSPost2010Prop36
280
     0
102
RTVSPost2010PropOp36
 70
     1
102
RTVSPost2010Prop37
 90
       50
102
RTVSPost2010PropOp37
 70
     1
102
RTVSPost2010Prop38
140
0.0
102
RTVSPost2010PropOp38
 70
     1
102
RTVSPost2010Prop39
140
1.0
102
RTVSPost2010PropOp39
 70
     1
102
RTVSPost2010Prop40
 90
        0
102
RTVSPost2010PropOp40
 70
     1
102
RTVSPost2010Prop41ColorIndex
 90
       18
102
RTVSPost2010Prop41ColorRGB
 90
        0
102
RTVSPost2010PropOp41
 70
     1
102
RTVSPost2010Prop42
 90
       50
102
RTVSPost2010PropOp42
 70
     1
102
RTVSPost2010Prop43
 90
        3
102
RTVSPost2010PropOp43
 70
     1
102
RTVSPost2010Prop44ColorIndex
 90
        5
102
RTVSPost2010Prop44ColorRGB
 90
      255
102
RTVSPost2010PropOp44
 70
     1
102
RTVSPost2010Prop45
280
     0
102
RTVSPost2010PropOp45
 70
     1
102
RTVSPost2010Prop46
 90
       50
102
RTVSPost2010PropOp46
 70
     1
102
RTVSPost2010Prop47
 90
       50
102
RTVSPost2010PropOp47
 70
     1
102
RTVSPost2010Prop48
 90
       50
102
RTVSPost2010PropOp48
 70
     1
102
RTVSPost2010Prop49
280
     0
102
RTVSPost2010PropOp49
 70
     1
102
RTVSPost2010Prop50
 90
       50
102
RTVSPost2010PropOp50
 70
     1
102
RTVSPost2010Prop51ColorIndex
 90
      256
102
RTVSPost2010Prop51ColorRGB
 90
-16777216
102
RTVSPost2010PropOp51
 70
     0
102
RTVSPost2010Prop52
140
1.0
102
RTVSPost2010PropOp52
 70
     0
102
RTVSPost2010Prop53
 90
        2
102
RTVSPost2010PropOp53
 70
     1
102
RTVSPost2010Prop54
  1
strokes_ogs.tif
102
RTVSPost2010PropOp54
 70
     1
102
RTVSPost2010Prop55
280
     0
102
RTVSPost2010PropOp55
 70
     1
102
RTVSPost2010Prop56
140
1.0
102
RTVSPost2010PropOp56
 70
     1
102
RTVSPost2010Prop57
140
1.0
102
RTVSPost2010PropOp57
 70
     1
102
RTVSPropertyOp0
 70
     1
102
RTVSPropertyOp1
 70
     1
102
RTVSPropertyOp2
 70
     1
102
RTVSPropertyOp3
 70
     1
102
RTVSPropertyOp4
 70
     1
102
RTVSPropertyOp5
 70
     1
102
RTVSPropertyOp6
 70
     1
102
RTVSPropertyOp7
 70
     1
102
RTVSPropertyOp8
 70
     1
102
RTVSPropertyOp9
 70
     1
102
RTVSPropertyOp10
 70
     1
102
RTVSPropertyOp11
 70
     1
102
RTVSPropertyOp12
 70
     1
102
RTVSPropertyOp13
 70
     1
102
RTVSPropertyOp14
 70
     1
102
RTVSPropertyOp15
 70
     1
102
RTVSPropertyOp16
 70
     1
102
RTVSPropertyOp17
 70
     1
102
RTVSPropertyOp18
 70
     1
102
RTVSPropertyOp19
 70
     1
102
RTVSPropertyOp20
 70
     1
102
RTVSPropertyOp21
 70
     1
102
RTVSPropertyOp22
 70
     1
102
RTVSPropertyOp23
 70
     1
102
RTVSPropertyOp24
 70
     1
102
RTVSPropertyOp25
 70
     1
102
RTVSPropertyOp26
 70
     1
102
RTVSPropertyOp27
 70
     1
102
RTVSPropertyOp28
 70
     1
102
RTVSPropertyOp29
 70
     1
102
RTVSPropertyOp30
 70
     1
102
RTVSPropertyOp31
 70
     1
102
RTVSPropertyOp32
 70
     1
102
RTVSPropertyOp33
 70
     1
102
RTVSPropertyOp34
 70
     1
102
RTVSPropertyOp35
 70
     1
102
RTVSPropertyOp36
 70
     1
102
RTVSPropertyOp37
 70
     1
102
RTVSPropertyOp38
 70
     1
102
RTVSPropertyOp39
 70
     1
102
RTVSPropertyOp40
 70
     1
102
RTVSPropertyOp41
 70
     1
102
RTVSPropertyOp42
 70
     1
102
RTVSPropertyOp43
 70
     1
102
RTVSPropertyOp44
 70
     1
102
RTVSPropertyOp45
 70
     1
102
RTVSPropertyOp46
 70
     1
102
RTVSPropertyOp47
 70
     1
102
RTVSPropertyOp48
 70
     1
102
RTVSPropertyOp49
 70
     1
102
RTVSPropertyOp50
 70
     1
102
RTVSPropertyOp51
 70
     0
102
RTVSPropertyOp52
 70
     0
102
RTVSPropertyOp53
 70
     1
102
RTVSPropertyOp54
 70
     1
102
RTVSPropertyOp55
 70
     1
102
RTVSPropertyOp56
 70
     1
102
RTVSPropertyOp57
 70
     1
102
RTVSPropertyOp58
 70
     1
102
RTVSPropertyOp59
 70
     1
102
RTVSPropertyOp60
 70
     1
102
RTVSPropertyOp61
 70
     1
102
RTVSPropertyOp62
 70
     1
  0
XRECORD
  5
3695
102
{ACAD_REACTORS
330
3694
102
}
330
3694
100
AcDbXrecord
280
     1
102
RTVSPost2010Prop28
280
     0
102
RTVSPost2010PropOp28
 70
     1
102
RTVSPost2010Prop29
280
     1
102
RTVSPost2010PropOp29
 70
     1
102
RTVSPost2010Prop30
280
     1
102
RTVSPost2010PropOp30
 70
     1
102
RTVSPost2010Prop31
280
     0
102
RTVSPost2010PropOp31
 70
     1
102
RTVSPost2010Prop32
280
     0
102
RTVSPost2010PropOp32
 70
     1
102
RTVSPost2010Prop33
280
     0
102
RTVSPost2010PropOp33
 70
     1
102
RTVSPost2010Prop34
280
     0
102
RTVSPost2010PropOp34
 70
     1
102
RTVSPost2010Prop35
280
     0
102
RTVSPost2010PropOp35
 70
     1
102
RTVSPost2010Prop36
280
     0
102
RTVSPost2010PropOp36
 70
     1
102
RTVSPost2010Prop37
 90
       50
102
RTVSPost2010PropOp37
 70
     1
102
RTVSPost2010Prop38
140
0.0
102
RTVSPost2010PropOp38
 70
     1
102
RTVSPost2010Prop39
140
1.0
102
RTVSPost2010PropOp39
 70
     1
102
RTVSPost2010Prop40
 90
        0
102
RTVSPost2010PropOp40
 70
     1
102
RTVSPost2010Prop41ColorIndex
 90
       18
102
RTVSPost2010Prop41ColorRGB
 90
        0
102
RTVSPost2010PropOp41
 70
     1
102
RTVSPost2010Prop42
 90
       50
102
RTVSPost2010PropOp42
 70
     1
102
RTVSPost2010Prop43
 90
        3
102
RTVSPost2010PropOp43
 70
     1
102
RTVSPost2010Prop44ColorIndex
 90
        5
102
RTVSPost2010Prop44ColorRGB
 90
      255
102
RTVSPost2010PropOp44
 70
     1
102
RTVSPost2010Prop45
280
     0
102
RTVSPost2010PropOp45
 70
     1
102
RTVSPost2010Prop46
 90
       50
102
RTVSPost2010PropOp46
 70
     1
102
RTVSPost2010Prop47
 90
       50
102
RTVSPost2010PropOp47
 70
     1
102
RTVSPost2010Prop48
 90
       50
102
RTVSPost2010PropOp48
 70
     1
102
RTVSPost2010Prop49
280
     0
102
RTVSPost2010PropOp49
 70
     1
102
RTVSPost2010Prop50
 90
       50
102
RTVSPost2010PropOp50
 70
     1
102
RTVSPost2010Prop51ColorIndex
 90
      256
102
RTVSPost2010Prop51ColorRGB
 90
-16777216
102
RTVSPost2010PropOp51
 70
     0
102
RTVSPost2010Prop52
140
1.0
102
RTVSPost2010PropOp52
 70
     0
102
RTVSPost2010Prop53
 90
        2
102
RTVSPost2010PropOp53
 70
     1
102
RTVSPost2010Prop54
  1
strokes_ogs.tif
102
RTVSPost2010PropOp54
 70
     1
102
RTVSPost2010Prop55
280
     0
102
RTVSPost2010PropOp55
 70
     1
102
RTVSPost2010Prop56
140
1.0
102
RTVSPost2010PropOp56
 70
     1
102
RTVSPost2010Prop57
140
1.0
102
RTVSPost2010PropOp57
 70
     1
102
RTVSPropertyOp0
 70
     1
102
RTVSPropertyOp1
 70
     1
102
RTVSPropertyOp2
 70
     1
102
RTVSPropertyOp3
 70
     1
102
RTVSPropertyOp4
 70
     1
102
RTVSPropertyOp5
 70
     1
102
RTVSPropertyOp6
 70
     1
102
RTVSPropertyOp7
 70
     1
102
RTVSPropertyOp8
 70
     1
102
RTVSPropertyOp9
 70
     1
102
RTVSPropertyOp10
 70
     1
102
RTVSPropertyOp11
 70
     1
102
RTVSPropertyOp12
 70
     1
102
RTVSPropertyOp13
 70
     1
102
RTVSPropertyOp14
 70
     1
102
RTVSPropertyOp15
 70
     1
102
RTVSPropertyOp16
 70
     1
102
RTVSPropertyOp17
 70
     1
102
RTVSPropertyOp18
 70
     1
102
RTVSPropertyOp19
 70
     1
102
RTVSPropertyOp20
 70
     1
102
RTVSPropertyOp21
 70
     1
102
RTVSPropertyOp22
 70
     1
102
RTVSPropertyOp23
 70
     1
102
RTVSPropertyOp24
 70
     1
102
RTVSPropertyOp25
 70
     1
102
RTVSPropertyOp26
 70
     1
102
RTVSPropertyOp27
 70
     1
102
RTVSPropertyOp28
 70
     1
102
RTVSPropertyOp29
 70
     1
102
RTVSPropertyOp30
 70
     1
102
RTVSPropertyOp31
 70
     1
102
RTVSPropertyOp32
 70
     1
102
RTVSPropertyOp33
 70
     1
102
RTVSPropertyOp34
 70
     1
102
RTVSPropertyOp35
 70
     1
102
RTVSPropertyOp36
 70
     1
102
RTVSPropertyOp37
 70
     1
102
RTVSPropertyOp38
 70
     1
102
RTVSPropertyOp39
 70
     1
102
RTVSPropertyOp40
 70
     1
102
RTVSPropertyOp41
 70
     1
102
RTVSPropertyOp42
 70
     1
102
RTVSPropertyOp43
 70
     1
102
RTVSPropertyOp44
 70
     1
102
RTVSPropertyOp45
 70
     1
102
RTVSPropertyOp46
 70
     1
102
RTVSPropertyOp47
 70
     1
102
RTVSPropertyOp48
 70
     1
102
RTVSPropertyOp49
 70
     1
102
RTVSPropertyOp50
 70
     1
102
RTVSPropertyOp51
 70
     0
102
RTVSPropertyOp52
 70
     0
102
RTVSPropertyOp53
 70
     1
102
RTVSPropertyOp54
 70
     1
102
RTVSPropertyOp55
 70
     1
102
RTVSPropertyOp56
 70
     1
102
RTVSPropertyOp57
 70
     1
102
RTVSPropertyOp58
 70
     1
102
RTVSPropertyOp59
 70
     1
102
RTVSPropertyOp60
 70
     1
102
RTVSPropertyOp61
 70
     1
102
RTVSPropertyOp62
 70
     1
  0
XRECORD
  5
36A3
102
{ACAD_REACTORS
330
36A2
102
}
330
36A2
100
AcDbXrecord
280
     1
102
RTVSPost2010Prop28
280
     0
102
RTVSPost2010PropOp28
 70
     1
102
RTVSPost2010Prop29
280
     1
102
RTVSPost2010PropOp29
 70
     1
102
RTVSPost2010Prop30
280
     1
102
RTVSPost2010PropOp30
 70
     1
102
RTVSPost2010Prop31
280
     0
102
RTVSPost2010PropOp31
 70
     1
102
RTVSPost2010Prop32
280
     0
102
RTVSPost2010PropOp32
 70
     1
102
RTVSPost2010Prop33
280
     0
102
RTVSPost2010PropOp33
 70
     1
102
RTVSPost2010Prop34
280
     0
102
RTVSPost2010PropOp34
 70
     1
102
RTVSPost2010Prop35
280
     0
102
RTVSPost2010PropOp35
 70
     1
102
RTVSPost2010Prop36
280
     0
102
RTVSPost2010PropOp36
 70
     1
102
RTVSPost2010Prop37
 90
       50
102
RTVSPost2010PropOp37
 70
     1
102
RTVSPost2010Prop38
140
0.0
102
RTVSPost2010PropOp38
 70
     1
102
RTVSPost2010Prop39
140
1.0
102
RTVSPost2010PropOp39
 70
     1
102
RTVSPost2010Prop40
 90
        0
102
RTVSPost2010PropOp40
 70
     1
102
RTVSPost2010Prop41ColorIndex
 90
       18
102
RTVSPost2010Prop41ColorRGB
 90
        0
102
RTVSPost2010PropOp41
 70
     1
102
RTVSPost2010Prop42
 90
       50
102
RTVSPost2010PropOp42
 70
     1
102
RTVSPost2010Prop43
 90
        3
102
RTVSPost2010PropOp43
 70
     1
102
RTVSPost2010Prop44ColorIndex
 90
        5
102
RTVSPost2010Prop44ColorRGB
 90
      255
102
RTVSPost2010PropOp44
 70
     1
102
RTVSPost2010Prop45
280
     0
102
RTVSPost2010PropOp45
 70
     1
102
RTVSPost2010Prop46
 90
       50
102
RTVSPost2010PropOp46
 70
     1
102
RTVSPost2010Prop47
 90
       50
102
RTVSPost2010PropOp47
 70
     1
102
RTVSPost2010Prop48
 90
       50
102
RTVSPost2010PropOp48
 70
     1
102
RTVSPost2010Prop49
280
     0
102
RTVSPost2010PropOp49
 70
     1
102
RTVSPost2010Prop50
 90
       50
102
RTVSPost2010PropOp50
 70
     1
102
RTVSPost2010Prop51ColorIndex
 90
      256
102
RTVSPost2010Prop51ColorRGB
 90
-16777216
102
RTVSPost2010PropOp51
 70
     0
102
RTVSPost2010Prop52
140
1.0
102
RTVSPost2010PropOp52
 70
     0
102
RTVSPost2010Prop53
 90
        2
102
RTVSPost2010PropOp53
 70
     1
102
RTVSPost2010Prop54
  1
strokes_ogs.tif
102
RTVSPost2010PropOp54
 70
     1
102
RTVSPost2010Prop55
280
     0
102
RTVSPost2010PropOp55
 70
     1
102
RTVSPost2010Prop56
140
1.0
102
RTVSPost2010PropOp56
 70
     1
102
RTVSPost2010Prop57
140
1.0
102
RTVSPost2010PropOp57
 70
     1
102
RTVSPropertyOp0
 70
     1
102
RTVSPropertyOp1
 70
     1
102
RTVSPropertyOp2
 70
     1
102
RTVSPropertyOp3
 70
     1
102
RTVSPropertyOp4
 70
     1
102
RTVSPropertyOp5
 70
     1
102
RTVSPropertyOp6
 70
     1
102
RTVSPropertyOp7
 70
     1
102
RTVSPropertyOp8
 70
     1
102
RTVSPropertyOp9
 70
     1
102
RTVSPropertyOp10
 70
     1
102
RTVSPropertyOp11
 70
     1
102
RTVSPropertyOp12
 70
     1
102
RTVSPropertyOp13
 70
     1
102
RTVSPropertyOp14
 70
     1
102
RTVSPropertyOp15
 70
     1
102
RTVSPropertyOp16
 70
     1
102
RTVSPropertyOp17
 70
     1
102
RTVSPropertyOp18
 70
     1
102
RTVSPropertyOp19
 70
     1
102
RTVSPropertyOp20
 70
     1
102
RTVSPropertyOp21
 70
     1
102
RTVSPropertyOp22
 70
     1
102
RTVSPropertyOp23
 70
     1
102
RTVSPropertyOp24
 70
     1
102
RTVSPropertyOp25
 70
     1
102
RTVSPropertyOp26
 70
     1
102
RTVSPropertyOp27
 70
     1
102
RTVSPropertyOp28
 70
     1
102
RTVSPropertyOp29
 70
     1
102
RTVSPropertyOp30
 70
     1
102
RTVSPropertyOp31
 70
     1
102
RTVSPropertyOp32
 70
     1
102
RTVSPropertyOp33
 70
     1
102
RTVSPropertyOp34
 70
     1
102
RTVSPropertyOp35
 70
     1
102
RTVSPropertyOp36
 70
     1
102
RTVSPropertyOp37
 70
     1
102
RTVSPropertyOp38
 70
     1
102
RTVSPropertyOp39
 70
     1
102
RTVSPropertyOp40
 70
     1
102
RTVSPropertyOp41
 70
     1
102
RTVSPropertyOp42
 70
     1
102
RTVSPropertyOp43
 70
     1
102
RTVSPropertyOp44
 70
     1
102
RTVSPropertyOp45
 70
     1
102
RTVSPropertyOp46
 70
     1
102
RTVSPropertyOp47
 70
     1
102
RTVSPropertyOp48
 70
     1
102
RTVSPropertyOp49
 70
     1
102
RTVSPropertyOp50
 70
     1
102
RTVSPropertyOp51
 70
     0
102
RTVSPropertyOp52
 70
     0
102
RTVSPropertyOp53
 70
     1
102
RTVSPropertyOp54
 70
     1
102
RTVSPropertyOp55
 70
     1
102
RTVSPropertyOp56
 70
     1
102
RTVSPropertyOp57
 70
     1
102
RTVSPropertyOp58
 70
     1
102
RTVSPropertyOp59
 70
     1
102
RTVSPropertyOp60
 70
     1
102
RTVSPropertyOp61
 70
     1
102
RTVSPropertyOp62
 70
     1
  0
XRECORD
  5
36AB
102
{ACAD_REACTORS
330
36AA
102
}
330
36AA
100
AcDbXrecord
280
     1
102
RTVSPost2010Prop28
280
     0
102
RTVSPost2010PropOp28
 70
     1
102
RTVSPost2010Prop29
280
     1
102
RTVSPost2010PropOp29
 70
     1
102
RTVSPost2010Prop30
280
     1
102
RTVSPost2010PropOp30
 70
     1
102
RTVSPost2010Prop31
280
     0
102
RTVSPost2010PropOp31
 70
     1
102
RTVSPost2010Prop32
280
     0
102
RTVSPost2010PropOp32
 70
     1
102
RTVSPost2010Prop33
280
     0
102
RTVSPost2010PropOp33
 70
     1
102
RTVSPost2010Prop34
280
     0
102
RTVSPost2010PropOp34
 70
     1
102
RTVSPost2010Prop35
280
     0
102
RTVSPost2010PropOp35
 70
     1
102
RTVSPost2010Prop36
280
     0
102
RTVSPost2010PropOp36
 70
     1
102
RTVSPost2010Prop37
 90
       50
102
RTVSPost2010PropOp37
 70
     1
102
RTVSPost2010Prop38
140
0.0
102
RTVSPost2010PropOp38
 70
     1
102
RTVSPost2010Prop39
140
1.0
102
RTVSPost2010PropOp39
 70
     1
102
RTVSPost2010Prop40
 90
        0
102
RTVSPost2010PropOp40
 70
     1
102
RTVSPost2010Prop41ColorIndex
 90
       18
102
RTVSPost2010Prop41ColorRGB
 90
        0
102
RTVSPost2010PropOp41
 70
     1
102
RTVSPost2010Prop42
 90
       50
102
RTVSPost2010PropOp42
 70
     1
102
RTVSPost2010Prop43
 90
        3
102
RTVSPost2010PropOp43
 70
     1
102
RTVSPost2010Prop44ColorIndex
 90
        5
102
RTVSPost2010Prop44ColorRGB
 90
      255
102
RTVSPost2010PropOp44
 70
     1
102
RTVSPost2010Prop45
280
     0
102
RTVSPost2010PropOp45
 70
     1
102
RTVSPost2010Prop46
 90
       50
102
RTVSPost2010PropOp46
 70
     1
102
RTVSPost2010Prop47
 90
       50
102
RTVSPost2010PropOp47
 70
     1
102
RTVSPost2010Prop48
 90
       50
102
RTVSPost2010PropOp48
 70
     1
102
RTVSPost2010Prop49
280
     0
102
RTVSPost2010PropOp49
 70
     1
102
RTVSPost2010Prop50
 90
       50
102
RTVSPost2010PropOp50
 70
     1
102
RTVSPost2010Prop51ColorIndex
 90
      256
102
RTVSPost2010Prop51ColorRGB
 90
-16777216
102
RTVSPost2010PropOp51
 70
     0
102
RTVSPost2010Prop52
140
1.0
102
RTVSPost2010PropOp52
 70
     0
102
RTVSPost2010Prop53
 90
        2
102
RTVSPost2010PropOp53
 70
     1
102
RTVSPost2010Prop54
  1
strokes_ogs.tif
102
RTVSPost2010PropOp54
 70
     1
102
RTVSPost2010Prop55
280
     0
102
RTVSPost2010PropOp55
 70
     1
102
RTVSPost2010Prop56
140
1.0
102
RTVSPost2010PropOp56
 70
     1
102
RTVSPost2010Prop57
140
1.0
102
RTVSPost2010PropOp57
 70
     1
102
RTVSPropertyOp0
 70
     1
102
RTVSPropertyOp1
 70
     1
102
RTVSPropertyOp2
 70
     1
102
RTVSPropertyOp3
 70
     1
102
RTVSPropertyOp4
 70
     1
102
RTVSPropertyOp5
 70
     1
102
RTVSPropertyOp6
 70
     1
102
RTVSPropertyOp7
 70
     1
102
RTVSPropertyOp8
 70
     1
102
RTVSPropertyOp9
 70
     1
102
RTVSPropertyOp10
 70
     1
102
RTVSPropertyOp11
 70
     1
102
RTVSPropertyOp12
 70
     1
102
RTVSPropertyOp13
 70
     1
102
RTVSPropertyOp14
 70
     1
102
RTVSPropertyOp15
 70
     1
102
RTVSPropertyOp16
 70
     1
102
RTVSPropertyOp17
 70
     1
102
RTVSPropertyOp18
 70
     1
102
RTVSPropertyOp19
 70
     1
102
RTVSPropertyOp20
 70
     1
102
RTVSPropertyOp21
 70
     1
102
RTVSPropertyOp22
 70
     1
102
RTVSPropertyOp23
 70
     1
102
RTVSPropertyOp24
 70
     1
102
RTVSPropertyOp25
 70
     1
102
RTVSPropertyOp26
 70
     1
102
RTVSPropertyOp27
 70
     1
102
RTVSPropertyOp28
 70
     1
102
RTVSPropertyOp29
 70
     1
102
RTVSPropertyOp30
 70
     1
102
RTVSPropertyOp31
 70
     1
102
RTVSPropertyOp32
 70
     1
102
RTVSPropertyOp33
 70
     1
102
RTVSPropertyOp34
 70
     1
102
RTVSPropertyOp35
 70
     1
102
RTVSPropertyOp36
 70
     1
102
RTVSPropertyOp37
 70
     1
102
RTVSPropertyOp38
 70
     1
102
RTVSPropertyOp39
 70
     1
102
RTVSPropertyOp40
 70
     1
102
RTVSPropertyOp41
 70
     1
102
RTVSPropertyOp42
 70
     1
102
RTVSPropertyOp43
 70
     1
102
RTVSPropertyOp44
 70
     1
102
RTVSPropertyOp45
 70
     1
102
RTVSPropertyOp46
 70
     1
102
RTVSPropertyOp47
 70
     1
102
RTVSPropertyOp48
 70
     1
102
RTVSPropertyOp49
 70
     1
102
RTVSPropertyOp50
 70
     1
102
RTVSPropertyOp51
 70
     0
102
RTVSPropertyOp52
 70
     0
102
RTVSPropertyOp53
 70
     1
102
RTVSPropertyOp54
 70
     1
102
RTVSPropertyOp55
 70
     1
102
RTVSPropertyOp56
 70
     1
102
RTVSPropertyOp57
 70
     1
102
RTVSPropertyOp58
 70
     1
102
RTVSPropertyOp59
 70
     1
102
RTVSPropertyOp60
 70
     1
102
RTVSPropertyOp61
 70
     1
102
RTVSPropertyOp62
 70
     1
  0
XRECORD
  5
369D
102
{ACAD_REACTORS
330
369C
102
}
330
369C
100
AcDbXrecord
280
     1
102
RTVSPost2010Prop28
280
     0
102
RTVSPost2010PropOp28
 70
     1
102
RTVSPost2010Prop29
280
     1
102
RTVSPost2010PropOp29
 70
     1
102
RTVSPost2010Prop30
280
     1
102
RTVSPost2010PropOp30
 70
     1
102
RTVSPost2010Prop31
280
     0
102
RTVSPost2010PropOp31
 70
     1
102
RTVSPost2010Prop32
280
     0
102
RTVSPost2010PropOp32
 70
     1
102
RTVSPost2010Prop33
280
     0
102
RTVSPost2010PropOp33
 70
     1
102
RTVSPost2010Prop34
280
     0
102
RTVSPost2010PropOp34
 70
     1
102
RTVSPost2010Prop35
280
     0
102
RTVSPost2010PropOp35
 70
     1
102
RTVSPost2010Prop36
280
     0
102
RTVSPost2010PropOp36
 70
     1
102
RTVSPost2010Prop37
 90
       50
102
RTVSPost2010PropOp37
 70
     1
102
RTVSPost2010Prop38
140
0.0
102
RTVSPost2010PropOp38
 70
     1
102
RTVSPost2010Prop39
140
1.0
102
RTVSPost2010PropOp39
 70
     1
102
RTVSPost2010Prop40
 90
        0
102
RTVSPost2010PropOp40
 70
     1
102
RTVSPost2010Prop41ColorIndex
 90
       18
102
RTVSPost2010Prop41ColorRGB
 90
        0
102
RTVSPost2010PropOp41
 70
     1
102
RTVSPost2010Prop42
 90
       50
102
RTVSPost2010PropOp42
 70
     1
102
RTVSPost2010Prop43
 90
        3
102
RTVSPost2010PropOp43
 70
     1
102
RTVSPost2010Prop44ColorIndex
 90
        5
102
RTVSPost2010Prop44ColorRGB
 90
      255
102
RTVSPost2010PropOp44
 70
     1
102
RTVSPost2010Prop45
280
     0
102
RTVSPost2010PropOp45
 70
     1
102
RTVSPost2010Prop46
 90
       50
102
RTVSPost2010PropOp46
 70
     1
102
RTVSPost2010Prop47
 90
       50
102
RTVSPost2010PropOp47
 70
     1
102
RTVSPost2010Prop48
 90
       50
102
RTVSPost2010PropOp48
 70
     1
102
RTVSPost2010Prop49
280
     0
102
RTVSPost2010PropOp49
 70
     1
102
RTVSPost2010Prop50
 90
       50
102
RTVSPost2010PropOp50
 70
     1
102
RTVSPost2010Prop51ColorIndex
 90
      256
102
RTVSPost2010Prop51ColorRGB
 90
-16777216
102
RTVSPost2010PropOp51
 70
     0
102
RTVSPost2010Prop52
140
1.0
102
RTVSPost2010PropOp52
 70
     0
102
RTVSPost2010Prop53
 90
        2
102
RTVSPost2010PropOp53
 70
     1
102
RTVSPost2010Prop54
  1
strokes_ogs.tif
102
RTVSPost2010PropOp54
 70
     1
102
RTVSPost2010Prop55
280
     0
102
RTVSPost2010PropOp55
 70
     1
102
RTVSPost2010Prop56
140
1.0
102
RTVSPost2010PropOp56
 70
     1
102
RTVSPost2010Prop57
140
1.0
102
RTVSPost2010PropOp57
 70
     1
102
RTVSPropertyOp0
 70
     1
102
RTVSPropertyOp1
 70
     1
102
RTVSPropertyOp2
 70
     1
102
RTVSPropertyOp3
 70
     1
102
RTVSPropertyOp4
 70
     1
102
RTVSPropertyOp5
 70
     1
102
RTVSPropertyOp6
 70
     1
102
RTVSPropertyOp7
 70
     1
102
RTVSPropertyOp8
 70
     1
102
RTVSPropertyOp9
 70
     1
102
RTVSPropertyOp10
 70
     1
102
RTVSPropertyOp11
 70
     1
102
RTVSPropertyOp12
 70
     1
102
RTVSPropertyOp13
 70
     1
102
RTVSPropertyOp14
 70
     1
102
RTVSPropertyOp15
 70
     1
102
RTVSPropertyOp16
 70
     1
102
RTVSPropertyOp17
 70
     1
102
RTVSPropertyOp18
 70
     1
102
RTVSPropertyOp19
 70
     1
102
RTVSPropertyOp20
 70
     1
102
RTVSPropertyOp21
 70
     1
102
RTVSPropertyOp22
 70
     1
102
RTVSPropertyOp23
 70
     1
102
RTVSPropertyOp24
 70
     1
102
RTVSPropertyOp25
 70
     1
102
RTVSPropertyOp26
 70
     1
102
RTVSPropertyOp27
 70
     1
102
RTVSPropertyOp28
 70
     1
102
RTVSPropertyOp29
 70
     1
102
RTVSPropertyOp30
 70
     1
102
RTVSPropertyOp31
 70
     1
102
RTVSPropertyOp32
 70
     1
102
RTVSPropertyOp33
 70
     1
102
RTVSPropertyOp34
 70
     1
102
RTVSPropertyOp35
 70
     1
102
RTVSPropertyOp36
 70
     1
102
RTVSPropertyOp37
 70
     1
102
RTVSPropertyOp38
 70
     1
102
RTVSPropertyOp39
 70
     1
102
RTVSPropertyOp40
 70
     1
102
RTVSPropertyOp41
 70
     1
102
RTVSPropertyOp42
 70
     1
102
RTVSPropertyOp43
 70
     1
102
RTVSPropertyOp44
 70
     1
102
RTVSPropertyOp45
 70
     1
102
RTVSPropertyOp46
 70
     1
102
RTVSPropertyOp47
 70
     1
102
RTVSPropertyOp48
 70
     1
102
RTVSPropertyOp49
 70
     1
102
RTVSPropertyOp50
 70
     1
102
RTVSPropertyOp51
 70
     0
102
RTVSPropertyOp52
 70
     0
102
RTVSPropertyOp53
 70
     1
102
RTVSPropertyOp54
 70
     1
102
RTVSPropertyOp55
 70
     1
102
RTVSPropertyOp56
 70
     1
102
RTVSPropertyOp57
 70
     1
102
RTVSPropertyOp58
 70
     1
102
RTVSPropertyOp59
 70
     1
102
RTVSPropertyOp60
 70
     1
102
RTVSPropertyOp61
 70
     1
102
RTVSPropertyOp62
 70
     1
  0
XRECORD
  5
36A1
102
{ACAD_REACTORS
330
36A0
102
}
330
36A0
100
AcDbXrecord
280
     1
102
RTVSPost2010Prop28
280
     0
102
RTVSPost2010PropOp28
 70
     1
102
RTVSPost2010Prop29
280
     1
102
RTVSPost2010PropOp29
 70
     1
102
RTVSPost2010Prop30
280
     1
102
RTVSPost2010PropOp30
 70
     1
102
RTVSPost2010Prop31
280
     0
102
RTVSPost2010PropOp31
 70
     1
102
RTVSPost2010Prop32
280
     0
102
RTVSPost2010PropOp32
 70
     1
102
RTVSPost2010Prop33
280
     0
102
RTVSPost2010PropOp33
 70
     1
102
RTVSPost2010Prop34
280
     0
102
RTVSPost2010PropOp34
 70
     1
102
RTVSPost2010Prop35
280
     0
102
RTVSPost2010PropOp35
 70
     1
102
RTVSPost2010Prop36
280
     0
102
RTVSPost2010PropOp36
 70
     1
102
RTVSPost2010Prop37
 90
       50
102
RTVSPost2010PropOp37
 70
     1
102
RTVSPost2010Prop38
140
0.0
102
RTVSPost2010PropOp38
 70
     1
102
RTVSPost2010Prop39
140
1.0
102
RTVSPost2010PropOp39
 70
     1
102
RTVSPost2010Prop40
 90
        0
102
RTVSPost2010PropOp40
 70
     1
102
RTVSPost2010Prop41ColorIndex
 90
       18
102
RTVSPost2010Prop41ColorRGB
 90
        0
102
RTVSPost2010PropOp41
 70
     1
102
RTVSPost2010Prop42
 90
       50
102
RTVSPost2010PropOp42
 70
     1
102
RTVSPost2010Prop43
 90
        3
102
RTVSPost2010PropOp43
 70
     1
102
RTVSPost2010Prop44ColorIndex
 90
        5
102
RTVSPost2010Prop44ColorRGB
 90
      255
102
RTVSPost2010PropOp44
 70
     1
102
RTVSPost2010Prop45
280
     0
102
RTVSPost2010PropOp45
 70
     1
102
RTVSPost2010Prop46
 90
       50
102
RTVSPost2010PropOp46
 70
     1
102
RTVSPost2010Prop47
 90
       50
102
RTVSPost2010PropOp47
 70
     1
102
RTVSPost2010Prop48
 90
       50
102
RTVSPost2010PropOp48
 70
     1
102
RTVSPost2010Prop49
280
     0
102
RTVSPost2010PropOp49
 70
     1
102
RTVSPost2010Prop50
 90
       50
102
RTVSPost2010PropOp50
 70
     1
102
RTVSPost2010Prop51ColorIndex
 90
      256
102
RTVSPost2010Prop51ColorRGB
 90
-16777216
102
RTVSPost2010PropOp51
 70
     0
102
RTVSPost2010Prop52
140
1.0
102
RTVSPost2010PropOp52
 70
     0
102
RTVSPost2010Prop53
 90
        2
102
RTVSPost2010PropOp53
 70
     1
102
RTVSPost2010Prop54
  1
strokes_ogs.tif
102
RTVSPost2010PropOp54
 70
     1
102
RTVSPost2010Prop55
280
     0
102
RTVSPost2010PropOp55
 70
     1
102
RTVSPost2010Prop56
140
1.0
102
RTVSPost2010PropOp56
 70
     1
102
RTVSPost2010Prop57
140
1.0
102
RTVSPost2010PropOp57
 70
     1
102
RTVSPropertyOp0
 70
     1
102
RTVSPropertyOp1
 70
     1
102
RTVSPropertyOp2
 70
     1
102
RTVSPropertyOp3
 70
     1
102
RTVSPropertyOp4
 70
     1
102
RTVSPropertyOp5
 70
     1
102
RTVSPropertyOp6
 70
     1
102
RTVSPropertyOp7
 70
     1
102
RTVSPropertyOp8
 70
     1
102
RTVSPropertyOp9
 70
     1
102
RTVSPropertyOp10
 70
     1
102
RTVSPropertyOp11
 70
     1
102
RTVSPropertyOp12
 70
     1
102
RTVSPropertyOp13
 70
     1
102
RTVSPropertyOp14
 70
     1
102
RTVSPropertyOp15
 70
     1
102
RTVSPropertyOp16
 70
     1
102
RTVSPropertyOp17
 70
     1
102
RTVSPropertyOp18
 70
     1
102
RTVSPropertyOp19
 70
     1
102
RTVSPropertyOp20
 70
     1
102
RTVSPropertyOp21
 70
     1
102
RTVSPropertyOp22
 70
     1
102
RTVSPropertyOp23
 70
     1
102
RTVSPropertyOp24
 70
     1
102
RTVSPropertyOp25
 70
     1
102
RTVSPropertyOp26
 70
     1
102
RTVSPropertyOp27
 70
     1
102
RTVSPropertyOp28
 70
     1
102
RTVSPropertyOp29
 70
     1
102
RTVSPropertyOp30
 70
     1
102
RTVSPropertyOp31
 70
     1
102
RTVSPropertyOp32
 70
     1
102
RTVSPropertyOp33
 70
     1
102
RTVSPropertyOp34
 70
     1
102
RTVSPropertyOp35
 70
     1
102
RTVSPropertyOp36
 70
     1
102
RTVSPropertyOp37
 70
     1
102
RTVSPropertyOp38
 70
     1
102
RTVSPropertyOp39
 70
     1
102
RTVSPropertyOp40
 70
     1
102
RTVSPropertyOp41
 70
     1
102
RTVSPropertyOp42
 70
     1
102
RTVSPropertyOp43
 70
     1
102
RTVSPropertyOp44
 70
     1
102
RTVSPropertyOp45
 70
     1
102
RTVSPropertyOp46
 70
     1
102
RTVSPropertyOp47
 70
     1
102
RTVSPropertyOp48
 70
     1
102
RTVSPropertyOp49
 70
     1
102
RTVSPropertyOp50
 70
     1
102
RTVSPropertyOp51
 70
     0
102
RTVSPropertyOp52
 70
     0
102
RTVSPropertyOp53
 70
     1
102
RTVSPropertyOp54
 70
     1
102
RTVSPropertyOp55
 70
     1
102
RTVSPropertyOp56
 70
     1
102
RTVSPropertyOp57
 70
     1
102
RTVSPropertyOp58
 70
     1
102
RTVSPropertyOp59
 70
     1
102
RTVSPropertyOp60
 70
     1
102
RTVSPropertyOp61
 70
     1
102
RTVSPropertyOp62
 70
     1
  0
XRECORD
  5
36BB
102
{ACAD_REACTORS
330
36BA
102
}
330
36BA
100
AcDbXrecord
280
     1
102
RTVSPost2010Prop28
280
     0
102
RTVSPost2010PropOp28
 70
     0
102
RTVSPost2010Prop29
280
     1
102
RTVSPost2010PropOp29
 70
     0
102
RTVSPost2010Prop30
280
     1
102
RTVSPost2010PropOp30
 70
     0
102
RTVSPost2010Prop31
280
     0
102
RTVSPost2010PropOp31
 70
     0
102
RTVSPost2010Prop32
280
     0
102
RTVSPost2010PropOp32
 70
     0
102
RTVSPost2010Prop33
280
     0
102
RTVSPost2010PropOp33
 70
     0
102
RTVSPost2010Prop34
280
     0
102
RTVSPost2010PropOp34
 70
     0
102
RTVSPost2010Prop35
280
     0
102
RTVSPost2010PropOp35
 70
     0
102
RTVSPost2010Prop36
280
     0
102
RTVSPost2010PropOp36
 70
     0
102
RTVSPost2010Prop37
 90
       50
102
RTVSPost2010PropOp37
 70
     0
102
RTVSPost2010Prop38
140
0.0
102
RTVSPost2010PropOp38
 70
     0
102
RTVSPost2010Prop39
140
1.0
102
RTVSPost2010PropOp39
 70
     0
102
RTVSPost2010Prop40
 90
        0
102
RTVSPost2010PropOp40
 70
     0
102
RTVSPost2010Prop41ColorIndex
 90
       18
102
RTVSPost2010Prop41ColorRGB
 90
        0
102
RTVSPost2010PropOp41
 70
     0
102
RTVSPost2010Prop42
 90
       50
102
RTVSPost2010PropOp42
 70
     0
102
RTVSPost2010Prop43
 90
        3
102
RTVSPost2010PropOp43
 70
     0
102
RTVSPost2010Prop44ColorIndex
 90
        5
102
RTVSPost2010Prop44ColorRGB
 90
      255
102
RTVSPost2010PropOp44
 70
     0
102
RTVSPost2010Prop45
280
     0
102
RTVSPost2010PropOp45
 70
     0
102
RTVSPost2010Prop46
 90
       50
102
RTVSPost2010PropOp46
 70
     0
102
RTVSPost2010Prop47
 90
       50
102
RTVSPost2010PropOp47
 70
     0
102
RTVSPost2010Prop48
 90
       50
102
RTVSPost2010PropOp48
 70
     0
102
RTVSPost2010Prop49
280
     0
102
RTVSPost2010PropOp49
 70
     0
102
RTVSPost2010Prop50
 90
       50
102
RTVSPost2010PropOp50
 70
     0
102
RTVSPost2010Prop51ColorIndex
 90
      256
102
RTVSPost2010Prop51ColorRGB
 90
-16777216
102
RTVSPost2010PropOp51
 70
     0
102
RTVSPost2010Prop52
140
1.0
102
RTVSPost2010PropOp52
 70
     0
102
RTVSPost2010Prop53
 90
        2
102
RTVSPost2010PropOp53
 70
     0
102
RTVSPost2010Prop54
  1
strokes_ogs.tif
102
RTVSPost2010PropOp54
 70
     0
102
RTVSPost2010Prop55
280
     0
102
RTVSPost2010PropOp55
 70
     0
102
RTVSPost2010Prop56
140
1.0
102
RTVSPost2010PropOp56
 70
     0
102
RTVSPost2010Prop57
140
1.0
102
RTVSPost2010PropOp57
 70
     0
102
RTVSPropertyOp0
 70
     0
102
RTVSPropertyOp1
 70
     0
102
RTVSPropertyOp2
 70
     0
102
RTVSPropertyOp3
 70
     0
102
RTVSPropertyOp4
 70
     0
102
RTVSPropertyOp5
 70
     0
102
RTVSPropertyOp6
 70
     0
102
RTVSPropertyOp7
 70
     0
102
RTVSPropertyOp8
 70
     0
102
RTVSPropertyOp9
 70
     0
102
RTVSPropertyOp10
 70
     0
102
RTVSPropertyOp11
 70
     0
102
RTVSPropertyOp12
 70
     0
102
RTVSPropertyOp13
 70
     0
102
RTVSPropertyOp14
 70
     2
102
RTVSPropertyOp15
 70
     0
102
RTVSPropertyOp16
 70
     0
102
RTVSPropertyOp17
 70
     0
102
RTVSPropertyOp18
 70
     0
102
RTVSPropertyOp19
 70
     0
102
RTVSPropertyOp20
 70
     0
102
RTVSPropertyOp21
 70
     0
102
RTVSPropertyOp22
 70
     0
102
RTVSPropertyOp23
 70
     0
102
RTVSPropertyOp24
 70
     0
102
RTVSPropertyOp25
 70
     0
102
RTVSPropertyOp26
 70
     0
102
RTVSPropertyOp27
 70
     0
102
RTVSPropertyOp28
 70
     0
102
RTVSPropertyOp29
 70
     0
102
RTVSPropertyOp30
 70
     0
102
RTVSPropertyOp31
 70
     0
102
RTVSPropertyOp32
 70
     0
102
RTVSPropertyOp33
 70
     0
102
RTVSPropertyOp34
 70
     0
102
RTVSPropertyOp35
 70
     0
102
RTVSPropertyOp36
 70
     0
102
RTVSPropertyOp37
 70
     0
102
RTVSPropertyOp38
 70
     0
102
RTVSPropertyOp39
 70
     0
102
RTVSPropertyOp40
 70
     0
102
RTVSPropertyOp41
 70
     0
102
RTVSPropertyOp42
 70
     0
102
RTVSPropertyOp43
 70
     0
102
RTVSPropertyOp44
 70
     0
102
RTVSPropertyOp45
 70
     0
102
RTVSPropertyOp46
 70
     0
102
RTVSPropertyOp47
 70
     0
102
RTVSPropertyOp48
 70
     0
102
RTVSPropertyOp49
 70
     0
102
RTVSPropertyOp50
 70
     0
102
RTVSPropertyOp51
 70
     0
102
RTVSPropertyOp52
 70
     0
102
RTVSPropertyOp53
 70
     0
102
RTVSPropertyOp54
 70
     0
102
RTVSPropertyOp55
 70
     0
102
RTVSPropertyOp56
 70
     0
102
RTVSPropertyOp57
 70
     0
102
RTVSPropertyOp58
 70
     0
102
RTVSPropertyOp59
 70
     0
102
RTVSPropertyOp60
 70
     0
102
RTVSPropertyOp61
 70
     0
102
RTVSPropertyOp62
 70
     0
  0
XRECORD
  5
36A9
102
{ACAD_REACTORS
330
36A8
102
}
330
36A8
100
AcDbXrecord
280
     1
102
RTVSPost2010Prop28
280
     0
102
RTVSPost2010PropOp28
 70
     1
102
RTVSPost2010Prop29
280
     1
102
RTVSPost2010PropOp29
 70
     1
102
RTVSPost2010Prop30
280
     1
102
RTVSPost2010PropOp30
 70
     1
102
RTVSPost2010Prop31
280
     0
102
RTVSPost2010PropOp31
 70
     1
102
RTVSPost2010Prop32
280
     0
102
RTVSPost2010PropOp32
 70
     1
102
RTVSPost2010Prop33
280
     0
102
RTVSPost2010PropOp33
 70
     1
102
RTVSPost2010Prop34
280
     0
102
RTVSPost2010PropOp34
 70
     1
102
RTVSPost2010Prop35
280
     0
102
RTVSPost2010PropOp35
 70
     1
102
RTVSPost2010Prop36
280
     0
102
RTVSPost2010PropOp36
 70
     1
102
RTVSPost2010Prop37
 90
       50
102
RTVSPost2010PropOp37
 70
     1
102
RTVSPost2010Prop38
140
0.0
102
RTVSPost2010PropOp38
 70
     1
102
RTVSPost2010Prop39
140
1.0
102
RTVSPost2010PropOp39
 70
     1
102
RTVSPost2010Prop40
 90
        0
102
RTVSPost2010PropOp40
 70
     1
102
RTVSPost2010Prop41ColorIndex
 90
       18
102
RTVSPost2010Prop41ColorRGB
 90
        0
102
RTVSPost2010PropOp41
 70
     1
102
RTVSPost2010Prop42
 90
       50
102
RTVSPost2010PropOp42
 70
     1
102
RTVSPost2010Prop43
 90
        3
102
RTVSPost2010PropOp43
 70
     1
102
RTVSPost2010Prop44ColorIndex
 90
        5
102
RTVSPost2010Prop44ColorRGB
 90
      255
102
RTVSPost2010PropOp44
 70
     1
102
RTVSPost2010Prop45
280
     0
102
RTVSPost2010PropOp45
 70
     1
102
RTVSPost2010Prop46
 90
       50
102
RTVSPost2010PropOp46
 70
     1
102
RTVSPost2010Prop47
 90
       50
102
RTVSPost2010PropOp47
 70
     1
102
RTVSPost2010Prop48
 90
       50
102
RTVSPost2010PropOp48
 70
     1
102
RTVSPost2010Prop49
280
     0
102
RTVSPost2010PropOp49
 70
     1
102
RTVSPost2010Prop50
 90
       50
102
RTVSPost2010PropOp50
 70
     1
102
RTVSPost2010Prop51ColorIndex
 90
      256
102
RTVSPost2010Prop51ColorRGB
 90
-16777216
102
RTVSPost2010PropOp51
 70
     0
102
RTVSPost2010Prop52
140
1.0
102
RTVSPost2010PropOp52
 70
     0
102
RTVSPost2010Prop53
 90
        2
102
RTVSPost2010PropOp53
 70
     1
102
RTVSPost2010Prop54
  1
strokes_ogs.tif
102
RTVSPost2010PropOp54
 70
     1
102
RTVSPost2010Prop55
280
     0
102
RTVSPost2010PropOp55
 70
     1
102
RTVSPost2010Prop56
140
1.0
102
RTVSPost2010PropOp56
 70
     1
102
RTVSPost2010Prop57
140
1.0
102
RTVSPost2010PropOp57
 70
     1
102
RTVSPropertyOp0
 70
     1
102
RTVSPropertyOp1
 70
     1
102
RTVSPropertyOp2
 70
     1
102
RTVSPropertyOp3
 70
     1
102
RTVSPropertyOp4
 70
     1
102
RTVSPropertyOp5
 70
     1
102
RTVSPropertyOp6
 70
     1
102
RTVSPropertyOp7
 70
     1
102
RTVSPropertyOp8
 70
     1
102
RTVSPropertyOp9
 70
     1
102
RTVSPropertyOp10
 70
     1
102
RTVSPropertyOp11
 70
     1
102
RTVSPropertyOp12
 70
     1
102
RTVSPropertyOp13
 70
     1
102
RTVSPropertyOp14
 70
     1
102
RTVSPropertyOp15
 70
     1
102
RTVSPropertyOp16
 70
     1
102
RTVSPropertyOp17
 70
     1
102
RTVSPropertyOp18
 70
     1
102
RTVSPropertyOp19
 70
     1
102
RTVSPropertyOp20
 70
     1
102
RTVSPropertyOp21
 70
     1
102
RTVSPropertyOp22
 70
     1
102
RTVSPropertyOp23
 70
     1
102
RTVSPropertyOp24
 70
     1
102
RTVSPropertyOp25
 70
     1
102
RTVSPropertyOp26
 70
     1
102
RTVSPropertyOp27
 70
     1
102
RTVSPropertyOp28
 70
     1
102
RTVSPropertyOp29
 70
     1
102
RTVSPropertyOp30
 70
     1
102
RTVSPropertyOp31
 70
     1
102
RTVSPropertyOp32
 70
     1
102
RTVSPropertyOp33
 70
     1
102
RTVSPropertyOp34
 70
     1
102
RTVSPropertyOp35
 70
     1
102
RTVSPropertyOp36
 70
     1
102
RTVSPropertyOp37
 70
     1
102
RTVSPropertyOp38
 70
     1
102
RTVSPropertyOp39
 70
     1
102
RTVSPropertyOp40
 70
     1
102
RTVSPropertyOp41
 70
     1
102
RTVSPropertyOp42
 70
     1
102
RTVSPropertyOp43
 70
     1
102
RTVSPropertyOp44
 70
     1
102
RTVSPropertyOp45
 70
     1
102
RTVSPropertyOp46
 70
     1
102
RTVSPropertyOp47
 70
     1
102
RTVSPropertyOp48
 70
     1
102
RTVSPropertyOp49
 70
     1
102
RTVSPropertyOp50
 70
     1
102
RTVSPropertyOp51
 70
     0
102
RTVSPropertyOp52
 70
     0
102
RTVSPropertyOp53
 70
     1
102
RTVSPropertyOp54
 70
     1
102
RTVSPropertyOp55
 70
     1
102
RTVSPropertyOp56
 70
     1
102
RTVSPropertyOp57
 70
     1
102
RTVSPropertyOp58
 70
     1
102
RTVSPropertyOp59
 70
     1
102
RTVSPropertyOp60
 70
     1
102
RTVSPropertyOp61
 70
     1
102
RTVSPropertyOp62
 70
     1
  0
XRECORD
  5
368D
102
{ACAD_REACTORS
330
368C
102
}
330
368C
100
AcDbXrecord
280
     1
102
RTVSPost2010Prop28
280
     0
102
RTVSPost2010PropOp28
 70
     1
102
RTVSPost2010Prop29
280
     1
102
RTVSPost2010PropOp29
 70
     1
102
RTVSPost2010Prop30
280
     1
102
RTVSPost2010PropOp30
 70
     1
102
RTVSPost2010Prop31
280
     0
102
RTVSPost2010PropOp31
 70
     1
102
RTVSPost2010Prop32
280
     0
102
RTVSPost2010PropOp32
 70
     1
102
RTVSPost2010Prop33
280
     0
102
RTVSPost2010PropOp33
 70
     1
102
RTVSPost2010Prop34
280
     0
102
RTVSPost2010PropOp34
 70
     1
102
RTVSPost2010Prop35
280
     0
102
RTVSPost2010PropOp35
 70
     1
102
RTVSPost2010Prop36
280
     0
102
RTVSPost2010PropOp36
 70
     1
102
RTVSPost2010Prop37
 90
       50
102
RTVSPost2010PropOp37
 70
     1
102
RTVSPost2010Prop38
140
0.0
102
RTVSPost2010PropOp38
 70
     1
102
RTVSPost2010Prop39
140
1.0
102
RTVSPost2010PropOp39
 70
     1
102
RTVSPost2010Prop40
 90
        0
102
RTVSPost2010PropOp40
 70
     1
102
RTVSPost2010Prop41ColorIndex
 90
       18
102
RTVSPost2010Prop41ColorRGB
 90
        0
102
RTVSPost2010PropOp41
 70
     1
102
RTVSPost2010Prop42
 90
       50
102
RTVSPost2010PropOp42
 70
     1
102
RTVSPost2010Prop43
 90
        3
102
RTVSPost2010PropOp43
 70
     1
102
RTVSPost2010Prop44ColorIndex
 90
        5
102
RTVSPost2010Prop44ColorRGB
 90
      255
102
RTVSPost2010PropOp44
 70
     1
102
RTVSPost2010Prop45
280
     0
102
RTVSPost2010PropOp45
 70
     1
102
RTVSPost2010Prop46
 90
       50
102
RTVSPost2010PropOp46
 70
     1
102
RTVSPost2010Prop47
 90
       50
102
RTVSPost2010PropOp47
 70
     1
102
RTVSPost2010Prop48
 90
       50
102
RTVSPost2010PropOp48
 70
     1
102
RTVSPost2010Prop49
280
     0
102
RTVSPost2010PropOp49
 70
     1
102
RTVSPost2010Prop50
 90
       50
102
RTVSPost2010PropOp50
 70
     1
102
RTVSPost2010Prop51ColorIndex
 90
      256
102
RTVSPost2010Prop51ColorRGB
 90
-16777216
102
RTVSPost2010PropOp51
 70
     0
102
RTVSPost2010Prop52
140
1.0
102
RTVSPost2010PropOp52
 70
     0
102
RTVSPost2010Prop53
 90
        2
102
RTVSPost2010PropOp53
 70
     1
102
RTVSPost2010Prop54
  1
strokes_ogs.tif
102
RTVSPost2010PropOp54
 70
     1
102
RTVSPost2010Prop55
280
     0
102
RTVSPost2010PropOp55
 70
     1
102
RTVSPost2010Prop56
140
1.0
102
RTVSPost2010PropOp56
 70
     1
102
RTVSPost2010Prop57
140
1.0
102
RTVSPost2010PropOp57
 70
     1
102
RTVSPropertyOp0
 70
     1
102
RTVSPropertyOp1
 70
     1
102
RTVSPropertyOp2
 70
     1
102
RTVSPropertyOp3
 70
     1
102
RTVSPropertyOp4
 70
     1
102
RTVSPropertyOp5
 70
     1
102
RTVSPropertyOp6
 70
     1
102
RTVSPropertyOp7
 70
     1
102
RTVSPropertyOp8
 70
     1
102
RTVSPropertyOp9
 70
     1
102
RTVSPropertyOp10
 70
     1
102
RTVSPropertyOp11
 70
     1
102
RTVSPropertyOp12
 70
     1
102
RTVSPropertyOp13
 70
     1
102
RTVSPropertyOp14
 70
     1
102
RTVSPropertyOp15
 70
     1
102
RTVSPropertyOp16
 70
     1
102
RTVSPropertyOp17
 70
     1
102
RTVSPropertyOp18
 70
     1
102
RTVSPropertyOp19
 70
     1
102
RTVSPropertyOp20
 70
     1
102
RTVSPropertyOp21
 70
     1
102
RTVSPropertyOp22
 70
     1
102
RTVSPropertyOp23
 70
     1
102
RTVSPropertyOp24
 70
     1
102
RTVSPropertyOp25
 70
     1
102
RTVSPropertyOp26
 70
     1
102
RTVSPropertyOp27
 70
     1
102
RTVSPropertyOp28
 70
     1
102
RTVSPropertyOp29
 70
     1
102
RTVSPropertyOp30
 70
     1
102
RTVSPropertyOp31
 70
     1
102
RTVSPropertyOp32
 70
     1
102
RTVSPropertyOp33
 70
     1
102
RTVSPropertyOp34
 70
     1
102
RTVSPropertyOp35
 70
     1
102
RTVSPropertyOp36
 70
     1
102
RTVSPropertyOp37
 70
     1
102
RTVSPropertyOp38
 70
     1
102
RTVSPropertyOp39
 70
     1
102
RTVSPropertyOp40
 70
     1
102
RTVSPropertyOp41
 70
     1
102
RTVSPropertyOp42
 70
     1
102
RTVSPropertyOp43
 70
     1
102
RTVSPropertyOp44
 70
     1
102
RTVSPropertyOp45
 70
     1
102
RTVSPropertyOp46
 70
     1
102
RTVSPropertyOp47
 70
     1
102
RTVSPropertyOp48
 70
     1
102
RTVSPropertyOp49
 70
     1
102
RTVSPropertyOp50
 70
     1
102
RTVSPropertyOp51
 70
     0
102
RTVSPropertyOp52
 70
     0
102
RTVSPropertyOp53
 70
     1
102
RTVSPropertyOp54
 70
     1
102
RTVSPropertyOp55
 70
     1
102
RTVSPropertyOp56
 70
     1
102
RTVSPropertyOp57
 70
     1
102
RTVSPropertyOp58
 70
     1
102
RTVSPropertyOp59
 70
     1
102
RTVSPropertyOp60
 70
     1
102
RTVSPropertyOp61
 70
     1
102
RTVSPropertyOp62
 70
     1
  0
XRECORD
  5
368F
102
{ACAD_REACTORS
330
368E
102
}
330
368E
100
AcDbXrecord
280
     1
102
RTVSPost2010Prop28
280
     0
102
RTVSPost2010PropOp28
 70
     1
102
RTVSPost2010Prop29
280
     1
102
RTVSPost2010PropOp29
 70
     1
102
RTVSPost2010Prop30
280
     1
102
RTVSPost2010PropOp30
 70
     1
102
RTVSPost2010Prop31
280
     0
102
RTVSPost2010PropOp31
 70
     1
102
RTVSPost2010Prop32
280
     0
102
RTVSPost2010PropOp32
 70
     1
102
RTVSPost2010Prop33
280
     0
102
RTVSPost2010PropOp33
 70
     1
102
RTVSPost2010Prop34
280
     0
102
RTVSPost2010PropOp34
 70
     1
102
RTVSPost2010Prop35
280
     0
102
RTVSPost2010PropOp35
 70
     1
102
RTVSPost2010Prop36
280
     0
102
RTVSPost2010PropOp36
 70
     1
102
RTVSPost2010Prop37
 90
       50
102
RTVSPost2010PropOp37
 70
     1
102
RTVSPost2010Prop38
140
0.0
102
RTVSPost2010PropOp38
 70
     1
102
RTVSPost2010Prop39
140
1.0
102
RTVSPost2010PropOp39
 70
     1
102
RTVSPost2010Prop40
 90
        0
102
RTVSPost2010PropOp40
 70
     1
102
RTVSPost2010Prop41ColorIndex
 90
       18
102
RTVSPost2010Prop41ColorRGB
 90
        0
102
RTVSPost2010PropOp41
 70
     1
102
RTVSPost2010Prop42
 90
       50
102
RTVSPost2010PropOp42
 70
     1
102
RTVSPost2010Prop43
 90
        3
102
RTVSPost2010PropOp43
 70
     1
102
RTVSPost2010Prop44ColorIndex
 90
        5
102
RTVSPost2010Prop44ColorRGB
 90
      255
102
RTVSPost2010PropOp44
 70
     1
102
RTVSPost2010Prop45
280
     0
102
RTVSPost2010PropOp45
 70
     1
102
RTVSPost2010Prop46
 90
       50
102
RTVSPost2010PropOp46
 70
     1
102
RTVSPost2010Prop47
 90
       50
102
RTVSPost2010PropOp47
 70
     1
102
RTVSPost2010Prop48
 90
       50
102
RTVSPost2010PropOp48
 70
     1
102
RTVSPost2010Prop49
280
     0
102
RTVSPost2010PropOp49
 70
     1
102
RTVSPost2010Prop50
 90
       50
102
RTVSPost2010PropOp50
 70
     1
102
RTVSPost2010Prop51ColorIndex
 90
      256
102
RTVSPost2010Prop51ColorRGB
 90
-16777216
102
RTVSPost2010PropOp51
 70
     0
102
RTVSPost2010Prop52
140
1.0
102
RTVSPost2010PropOp52
 70
     0
102
RTVSPost2010Prop53
 90
        2
102
RTVSPost2010PropOp53
 70
     1
102
RTVSPost2010Prop54
  1
strokes_ogs.tif
102
RTVSPost2010PropOp54
 70
     1
102
RTVSPost2010Prop55
280
     0
102
RTVSPost2010PropOp55
 70
     1
102
RTVSPost2010Prop56
140
1.0
102
RTVSPost2010PropOp56
 70
     1
102
RTVSPost2010Prop57
140
1.0
102
RTVSPost2010PropOp57
 70
     1
102
RTVSPropertyOp0
 70
     1
102
RTVSPropertyOp1
 70
     1
102
RTVSPropertyOp2
 70
     1
102
RTVSPropertyOp3
 70
     1
102
RTVSPropertyOp4
 70
     1
102
RTVSPropertyOp5
 70
     1
102
RTVSPropertyOp6
 70
     1
102
RTVSPropertyOp7
 70
     1
102
RTVSPropertyOp8
 70
     1
102
RTVSPropertyOp9
 70
     1
102
RTVSPropertyOp10
 70
     1
102
RTVSPropertyOp11
 70
     1
102
RTVSPropertyOp12
 70
     1
102
RTVSPropertyOp13
 70
     1
102
RTVSPropertyOp14
 70
     1
102
RTVSPropertyOp15
 70
     1
102
RTVSPropertyOp16
 70
     1
102
RTVSPropertyOp17
 70
     1
102
RTVSPropertyOp18
 70
     1
102
RTVSPropertyOp19
 70
     1
102
RTVSPropertyOp20
 70
     1
102
RTVSPropertyOp21
 70
     1
102
RTVSPropertyOp22
 70
     1
102
RTVSPropertyOp23
 70
     1
102
RTVSPropertyOp24
 70
     1
102
RTVSPropertyOp25
 70
     1
102
RTVSPropertyOp26
 70
     1
102
RTVSPropertyOp27
 70
     1
102
RTVSPropertyOp28
 70
     1
102
RTVSPropertyOp29
 70
     1
102
RTVSPropertyOp30
 70
     1
102
RTVSPropertyOp31
 70
     1
102
RTVSPropertyOp32
 70
     1
102
RTVSPropertyOp33
 70
     1
102
RTVSPropertyOp34
 70
     1
102
RTVSPropertyOp35
 70
     1
102
RTVSPropertyOp36
 70
     1
102
RTVSPropertyOp37
 70
     1
102
RTVSPropertyOp38
 70
     1
102
RTVSPropertyOp39
 70
     1
102
RTVSPropertyOp40
 70
     1
102
RTVSPropertyOp41
 70
     1
102
RTVSPropertyOp42
 70
     1
102
RTVSPropertyOp43
 70
     1
102
RTVSPropertyOp44
 70
     1
102
RTVSPropertyOp45
 70
     1
102
RTVSPropertyOp46
 70
     1
102
RTVSPropertyOp47
 70
     1
102
RTVSPropertyOp48
 70
     1
102
RTVSPropertyOp49
 70
     1
102
RTVSPropertyOp50
 70
     1
102
RTVSPropertyOp51
 70
     0
102
RTVSPropertyOp52
 70
     0
102
RTVSPropertyOp53
 70
     1
102
RTVSPropertyOp54
 70
     1
102
RTVSPropertyOp55
 70
     1
102
RTVSPropertyOp56
 70
     1
102
RTVSPropertyOp57
 70
     1
102
RTVSPropertyOp58
 70
     1
102
RTVSPropertyOp59
 70
     1
102
RTVSPropertyOp60
 70
     1
102
RTVSPropertyOp61
 70
     1
102
RTVSPropertyOp62
 70
     1
  0
XRECORD
  5
3691
102
{ACAD_REACTORS
330
3690
102
}
330
3690
100
AcDbXrecord
280
     1
102
RTVSPost2010Prop28
280
     0
102
RTVSPost2010PropOp28
 70
     1
102
RTVSPost2010Prop29
280
     1
102
RTVSPost2010PropOp29
 70
     1
102
RTVSPost2010Prop30
280
     1
102
RTVSPost2010PropOp30
 70
     1
102
RTVSPost2010Prop31
280
     0
102
RTVSPost2010PropOp31
 70
     1
102
RTVSPost2010Prop32
280
     0
102
RTVSPost2010PropOp32
 70
     1
102
RTVSPost2010Prop33
280
     0
102
RTVSPost2010PropOp33
 70
     1
102
RTVSPost2010Prop34
280
     0
102
RTVSPost2010PropOp34
 70
     1
102
RTVSPost2010Prop35
280
     0
102
RTVSPost2010PropOp35
 70
     1
102
RTVSPost2010Prop36
280
     0
102
RTVSPost2010PropOp36
 70
     1
102
RTVSPost2010Prop37
 90
       50
102
RTVSPost2010PropOp37
 70
     1
102
RTVSPost2010Prop38
140
0.0
102
RTVSPost2010PropOp38
 70
     1
102
RTVSPost2010Prop39
140
1.0
102
RTVSPost2010PropOp39
 70
     1
102
RTVSPost2010Prop40
 90
        0
102
RTVSPost2010PropOp40
 70
     1
102
RTVSPost2010Prop41ColorIndex
 90
       18
102
RTVSPost2010Prop41ColorRGB
 90
        0
102
RTVSPost2010PropOp41
 70
     1
102
RTVSPost2010Prop42
 90
       50
102
RTVSPost2010PropOp42
 70
     1
102
RTVSPost2010Prop43
 90
        3
102
RTVSPost2010PropOp43
 70
     1
102
RTVSPost2010Prop44ColorIndex
 90
        5
102
RTVSPost2010Prop44ColorRGB
 90
      255
102
RTVSPost2010PropOp44
 70
     1
102
RTVSPost2010Prop45
280
     0
102
RTVSPost2010PropOp45
 70
     1
102
RTVSPost2010Prop46
 90
       50
102
RTVSPost2010PropOp46
 70
     1
102
RTVSPost2010Prop47
 90
       50
102
RTVSPost2010PropOp47
 70
     1
102
RTVSPost2010Prop48
 90
       50
102
RTVSPost2010PropOp48
 70
     1
102
RTVSPost2010Prop49
280
     0
102
RTVSPost2010PropOp49
 70
     1
102
RTVSPost2010Prop50
 90
       50
102
RTVSPost2010PropOp50
 70
     1
102
RTVSPost2010Prop51ColorIndex
 90
      256
102
RTVSPost2010Prop51ColorRGB
 90
-16777216
102
RTVSPost2010PropOp51
 70
     0
102
RTVSPost2010Prop52
140
1.0
102
RTVSPost2010PropOp52
 70
     0
102
RTVSPost2010Prop53
 90
        2
102
RTVSPost2010PropOp53
 70
     1
102
RTVSPost2010Prop54
  1
strokes_ogs.tif
102
RTVSPost2010PropOp54
 70
     1
102
RTVSPost2010Prop55
280
     0
102
RTVSPost2010PropOp55
 70
     1
102
RTVSPost2010Prop56
140
1.0
102
RTVSPost2010PropOp56
 70
     1
102
RTVSPost2010Prop57
140
1.0
102
RTVSPost2010PropOp57
 70
     1
102
RTVSPropertyOp0
 70
     1
102
RTVSPropertyOp1
 70
     1
102
RTVSPropertyOp2
 70
     1
102
RTVSPropertyOp3
 70
     1
102
RTVSPropertyOp4
 70
     1
102
RTVSPropertyOp5
 70
     1
102
RTVSPropertyOp6
 70
     1
102
RTVSPropertyOp7
 70
     1
102
RTVSPropertyOp8
 70
     1
102
RTVSPropertyOp9
 70
     1
102
RTVSPropertyOp10
 70
     1
102
RTVSPropertyOp11
 70
     1
102
RTVSPropertyOp12
 70
     1
102
RTVSPropertyOp13
 70
     1
102
RTVSPropertyOp14
 70
     1
102
RTVSPropertyOp15
 70
     1
102
RTVSPropertyOp16
 70
     1
102
RTVSPropertyOp17
 70
     1
102
RTVSPropertyOp18
 70
     1
102
RTVSPropertyOp19
 70
     1
102
RTVSPropertyOp20
 70
     1
102
RTVSPropertyOp21
 70
     1
102
RTVSPropertyOp22
 70
     1
102
RTVSPropertyOp23
 70
     1
102
RTVSPropertyOp24
 70
     1
102
RTVSPropertyOp25
 70
     1
102
RTVSPropertyOp26
 70
     1
102
RTVSPropertyOp27
 70
     1
102
RTVSPropertyOp28
 70
     1
102
RTVSPropertyOp29
 70
     1
102
RTVSPropertyOp30
 70
     1
102
RTVSPropertyOp31
 70
     1
102
RTVSPropertyOp32
 70
     1
102
RTVSPropertyOp33
 70
     1
102
RTVSPropertyOp34
 70
     1
102
RTVSPropertyOp35
 70
     1
102
RTVSPropertyOp36
 70
     1
102
RTVSPropertyOp37
 70
     1
102
RTVSPropertyOp38
 70
     1
102
RTVSPropertyOp39
 70
     1
102
RTVSPropertyOp40
 70
     1
102
RTVSPropertyOp41
 70
     1
102
RTVSPropertyOp42
 70
     1
102
RTVSPropertyOp43
 70
     1
102
RTVSPropertyOp44
 70
     1
102
RTVSPropertyOp45
 70
     1
102
RTVSPropertyOp46
 70
     1
102
RTVSPropertyOp47
 70
     1
102
RTVSPropertyOp48
 70
     1
102
RTVSPropertyOp49
 70
     1
102
RTVSPropertyOp50
 70
     1
102
RTVSPropertyOp51
 70
     0
102
RTVSPropertyOp52
 70
     0
102
RTVSPropertyOp53
 70
     1
102
RTVSPropertyOp54
 70
     1
102
RTVSPropertyOp55
 70
     1
102
RTVSPropertyOp56
 70
     1
102
RTVSPropertyOp57
 70
     1
102
RTVSPropertyOp58
 70
     1
102
RTVSPropertyOp59
 70
     1
102
RTVSPropertyOp60
 70
     1
102
RTVSPropertyOp61
 70
     1
102
RTVSPropertyOp62
 70
     1
  0
XRECORD
  5
3693
102
{ACAD_REACTORS
330
3692
102
}
330
3692
100
AcDbXrecord
280
     1
102
RTVSPost2010Prop28
280
     0
102
RTVSPost2010PropOp28
 70
     1
102
RTVSPost2010Prop29
280
     1
102
RTVSPost2010PropOp29
 70
     1
102
RTVSPost2010Prop30
280
     1
102
RTVSPost2010PropOp30
 70
     1
102
RTVSPost2010Prop31
280
     0
102
RTVSPost2010PropOp31
 70
     1
102
RTVSPost2010Prop32
280
     0
102
RTVSPost2010PropOp32
 70
     1
102
RTVSPost2010Prop33
280
     0
102
RTVSPost2010PropOp33
 70
     1
102
RTVSPost2010Prop34
280
     0
102
RTVSPost2010PropOp34
 70
     1
102
RTVSPost2010Prop35
280
     0
102
RTVSPost2010PropOp35
 70
     1
102
RTVSPost2010Prop36
280
     0
102
RTVSPost2010PropOp36
 70
     1
102
RTVSPost2010Prop37
 90
       50
102
RTVSPost2010PropOp37
 70
     1
102
RTVSPost2010Prop38
140
0.0
102
RTVSPost2010PropOp38
 70
     1
102
RTVSPost2010Prop39
140
1.0
102
RTVSPost2010PropOp39
 70
     1
102
RTVSPost2010Prop40
 90
        0
102
RTVSPost2010PropOp40
 70
     1
102
RTVSPost2010Prop41ColorIndex
 90
       18
102
RTVSPost2010Prop41ColorRGB
 90
        0
102
RTVSPost2010PropOp41
 70
     1
102
RTVSPost2010Prop42
 90
       50
102
RTVSPost2010PropOp42
 70
     1
102
RTVSPost2010Prop43
 90
        3
102
RTVSPost2010PropOp43
 70
     1
102
RTVSPost2010Prop44ColorIndex
 90
        5
102
RTVSPost2010Prop44ColorRGB
 90
      255
102
RTVSPost2010PropOp44
 70
     1
102
RTVSPost2010Prop45
280
     0
102
RTVSPost2010PropOp45
 70
     1
102
RTVSPost2010Prop46
 90
       50
102
RTVSPost2010PropOp46
 70
     1
102
RTVSPost2010Prop47
 90
       50
102
RTVSPost2010PropOp47
 70
     1
102
RTVSPost2010Prop48
 90
       50
102
RTVSPost2010PropOp48
 70
     1
102
RTVSPost2010Prop49
280
     0
102
RTVSPost2010PropOp49
 70
     1
102
RTVSPost2010Prop50
 90
       50
102
RTVSPost2010PropOp50
 70
     1
102
RTVSPost2010Prop51ColorIndex
 90
      256
102
RTVSPost2010Prop51ColorRGB
 90
-16777216
102
RTVSPost2010PropOp51
 70
     0
102
RTVSPost2010Prop52
140
1.0
102
RTVSPost2010PropOp52
 70
     0
102
RTVSPost2010Prop53
 90
        2
102
RTVSPost2010PropOp53
 70
     1
102
RTVSPost2010Prop54
  1
strokes_ogs.tif
102
RTVSPost2010PropOp54
 70
     1
102
RTVSPost2010Prop55
280
     0
102
RTVSPost2010PropOp55
 70
     1
102
RTVSPost2010Prop56
140
1.0
102
RTVSPost2010PropOp56
 70
     1
102
RTVSPost2010Prop57
140
1.0
102
RTVSPost2010PropOp57
 70
     1
102
RTVSPropertyOp0
 70
     1
102
RTVSPropertyOp1
 70
     1
102
RTVSPropertyOp2
 70
     1
102
RTVSPropertyOp3
 70
     1
102
RTVSPropertyOp4
 70
     1
102
RTVSPropertyOp5
 70
     1
102
RTVSPropertyOp6
 70
     1
102
RTVSPropertyOp7
 70
     1
102
RTVSPropertyOp8
 70
     1
102
RTVSPropertyOp9
 70
     1
102
RTVSPropertyOp10
 70
     1
102
RTVSPropertyOp11
 70
     1
102
RTVSPropertyOp12
 70
     1
102
RTVSPropertyOp13
 70
     1
102
RTVSPropertyOp14
 70
     1
102
RTVSPropertyOp15
 70
     1
102
RTVSPropertyOp16
 70
     1
102
RTVSPropertyOp17
 70
     1
102
RTVSPropertyOp18
 70
     1
102
RTVSPropertyOp19
 70
     1
102
RTVSPropertyOp20
 70
     1
102
RTVSPropertyOp21
 70
     1
102
RTVSPropertyOp22
 70
     1
102
RTVSPropertyOp23
 70
     1
102
RTVSPropertyOp24
 70
     1
102
RTVSPropertyOp25
 70
     1
102
RTVSPropertyOp26
 70
     1
102
RTVSPropertyOp27
 70
     1
102
RTVSPropertyOp28
 70
     1
102
RTVSPropertyOp29
 70
     1
102
RTVSPropertyOp30
 70
     1
102
RTVSPropertyOp31
 70
     1
102
RTVSPropertyOp32
 70
     1
102
RTVSPropertyOp33
 70
     1
102
RTVSPropertyOp34
 70
     1
102
RTVSPropertyOp35
 70
     1
102
RTVSPropertyOp36
 70
     1
102
RTVSPropertyOp37
 70
     1
102
RTVSPropertyOp38
 70
     1
102
RTVSPropertyOp39
 70
     1
102
RTVSPropertyOp40
 70
     1
102
RTVSPropertyOp41
 70
     1
102
RTVSPropertyOp42
 70
     1
102
RTVSPropertyOp43
 70
     1
102
RTVSPropertyOp44
 70
     1
102
RTVSPropertyOp45
 70
     1
102
RTVSPropertyOp46
 70
     1
102
RTVSPropertyOp47
 70
     1
102
RTVSPropertyOp48
 70
     1
102
RTVSPropertyOp49
 70
     1
102
RTVSPropertyOp50
 70
     1
102
RTVSPropertyOp51
 70
     0
102
RTVSPropertyOp52
 70
     0
102
RTVSPropertyOp53
 70
     1
102
RTVSPropertyOp54
 70
     1
102
RTVSPropertyOp55
 70
     1
102
RTVSPropertyOp56
 70
     1
102
RTVSPropertyOp57
 70
     1
102
RTVSPropertyOp58
 70
     1
102
RTVSPropertyOp59
 70
     1
102
RTVSPropertyOp60
 70
     1
102
RTVSPropertyOp61
 70
     1
102
RTVSPropertyOp62
 70
     1
  0
XRECORD
  5
369B
102
{ACAD_REACTORS
330
369A
102
}
330
369A
100
AcDbXrecord
280
     1
102
RTVSPost2010Prop28
280
     0
102
RTVSPost2010PropOp28
 70
     1
102
RTVSPost2010Prop29
280
     1
102
RTVSPost2010PropOp29
 70
     1
102
RTVSPost2010Prop30
280
     1
102
RTVSPost2010PropOp30
 70
     1
102
RTVSPost2010Prop31
280
     0
102
RTVSPost2010PropOp31
 70
     1
102
RTVSPost2010Prop32
280
     0
102
RTVSPost2010PropOp32
 70
     1
102
RTVSPost2010Prop33
280
     0
102
RTVSPost2010PropOp33
 70
     1
102
RTVSPost2010Prop34
280
     0
102
RTVSPost2010PropOp34
 70
     1
102
RTVSPost2010Prop35
280
     0
102
RTVSPost2010PropOp35
 70
     1
102
RTVSPost2010Prop36
280
     0
102
RTVSPost2010PropOp36
 70
     1
102
RTVSPost2010Prop37
 90
       50
102
RTVSPost2010PropOp37
 70
     1
102
RTVSPost2010Prop38
140
0.0
102
RTVSPost2010PropOp38
 70
     1
102
RTVSPost2010Prop39
140
1.0
102
RTVSPost2010PropOp39
 70
     1
102
RTVSPost2010Prop40
 90
        0
102
RTVSPost2010PropOp40
 70
     1
102
RTVSPost2010Prop41ColorIndex
 90
       18
102
RTVSPost2010Prop41ColorRGB
 90
        0
102
RTVSPost2010PropOp41
 70
     1
102
RTVSPost2010Prop42
 90
       50
102
RTVSPost2010PropOp42
 70
     1
102
RTVSPost2010Prop43
 90
        3
102
RTVSPost2010PropOp43
 70
     1
102
RTVSPost2010Prop44ColorIndex
 90
        5
102
RTVSPost2010Prop44ColorRGB
 90
      255
102
RTVSPost2010PropOp44
 70
     1
102
RTVSPost2010Prop45
280
     0
102
RTVSPost2010PropOp45
 70
     1
102
RTVSPost2010Prop46
 90
       50
102
RTVSPost2010PropOp46
 70
     1
102
RTVSPost2010Prop47
 90
       50
102
RTVSPost2010PropOp47
 70
     1
102
RTVSPost2010Prop48
 90
       50
102
RTVSPost2010PropOp48
 70
     1
102
RTVSPost2010Prop49
280
     0
102
RTVSPost2010PropOp49
 70
     1
102
RTVSPost2010Prop50
 90
       50
102
RTVSPost2010PropOp50
 70
     1
102
RTVSPost2010Prop51ColorIndex
 90
      256
102
RTVSPost2010Prop51ColorRGB
 90
-16777216
102
RTVSPost2010PropOp51
 70
     0
102
RTVSPost2010Prop52
140
1.0
102
RTVSPost2010PropOp52
 70
     0
102
RTVSPost2010Prop53
 90
        2
102
RTVSPost2010PropOp53
 70
     1
102
RTVSPost2010Prop54
  1
strokes_ogs.tif
102
RTVSPost2010PropOp54
 70
     1
102
RTVSPost2010Prop55
280
     0
102
RTVSPost2010PropOp55
 70
     1
102
RTVSPost2010Prop56
140
1.0
102
RTVSPost2010PropOp56
 70
     1
102
RTVSPost2010Prop57
140
1.0
102
RTVSPost2010PropOp57
 70
     1
102
RTVSPropertyOp0
 70
     1
102
RTVSPropertyOp1
 70
     1
102
RTVSPropertyOp2
 70
     1
102
RTVSPropertyOp3
 70
     1
102
RTVSPropertyOp4
 70
     1
102
RTVSPropertyOp5
 70
     1
102
RTVSPropertyOp6
 70
     1
102
RTVSPropertyOp7
 70
     1
102
RTVSPropertyOp8
 70
     1
102
RTVSPropertyOp9
 70
     1
102
RTVSPropertyOp10
 70
     1
102
RTVSPropertyOp11
 70
     1
102
RTVSPropertyOp12
 70
     1
102
RTVSPropertyOp13
 70
     1
102
RTVSPropertyOp14
 70
     1
102
RTVSPropertyOp15
 70
     1
102
RTVSPropertyOp16
 70
     1
102
RTVSPropertyOp17
 70
     1
102
RTVSPropertyOp18
 70
     1
102
RTVSPropertyOp19
 70
     1
102
RTVSPropertyOp20
 70
     1
102
RTVSPropertyOp21
 70
     1
102
RTVSPropertyOp22
 70
     1
102
RTVSPropertyOp23
 70
     1
102
RTVSPropertyOp24
 70
     1
102
RTVSPropertyOp25
 70
     1
102
RTVSPropertyOp26
 70
     1
102
RTVSPropertyOp27
 70
     1
102
RTVSPropertyOp28
 70
     1
102
RTVSPropertyOp29
 70
     1
102
RTVSPropertyOp30
 70
     1
102
RTVSPropertyOp31
 70
     1
102
RTVSPropertyOp32
 70
     1
102
RTVSPropertyOp33
 70
     1
102
RTVSPropertyOp34
 70
     1
102
RTVSPropertyOp35
 70
     1
102
RTVSPropertyOp36
 70
     1
102
RTVSPropertyOp37
 70
     1
102
RTVSPropertyOp38
 70
     1
102
RTVSPropertyOp39
 70
     1
102
RTVSPropertyOp40
 70
     1
102
RTVSPropertyOp41
 70
     1
102
RTVSPropertyOp42
 70
     1
102
RTVSPropertyOp43
 70
     1
102
RTVSPropertyOp44
 70
     1
102
RTVSPropertyOp45
 70
     1
102
RTVSPropertyOp46
 70
     1
102
RTVSPropertyOp47
 70
     1
102
RTVSPropertyOp48
 70
     1
102
RTVSPropertyOp49
 70
     1
102
RTVSPropertyOp50
 70
     1
102
RTVSPropertyOp51
 70
     0
102
RTVSPropertyOp52
 70
     0
102
RTVSPropertyOp53
 70
     1
102
RTVSPropertyOp54
 70
     1
102
RTVSPropertyOp55
 70
     1
102
RTVSPropertyOp56
 70
     1
102
RTVSPropertyOp57
 70
     1
102
RTVSPropertyOp58
 70
     1
102
RTVSPropertyOp59
 70
     1
102
RTVSPropertyOp60
 70
     1
102
RTVSPropertyOp61
 70
     1
102
RTVSPropertyOp62
 70
     1
  0
XRECORD
  5
36B7
102
{ACAD_REACTORS
330
36B6
102
}
330
36B6
100
AcDbXrecord
280
     1
102
RTVSPost2010Prop28
280
     0
102
RTVSPost2010PropOp28
 70
     0
102
RTVSPost2010Prop29
280
     1
102
RTVSPost2010PropOp29
 70
     0
102
RTVSPost2010Prop30
280
     1
102
RTVSPost2010PropOp30
 70
     0
102
RTVSPost2010Prop31
280
     0
102
RTVSPost2010PropOp31
 70
     0
102
RTVSPost2010Prop32
280
     0
102
RTVSPost2010PropOp32
 70
     0
102
RTVSPost2010Prop33
280
     0
102
RTVSPost2010PropOp33
 70
     0
102
RTVSPost2010Prop34
280
     0
102
RTVSPost2010PropOp34
 70
     0
102
RTVSPost2010Prop35
280
     0
102
RTVSPost2010PropOp35
 70
     0
102
RTVSPost2010Prop36
280
     0
102
RTVSPost2010PropOp36
 70
     0
102
RTVSPost2010Prop37
 90
       50
102
RTVSPost2010PropOp37
 70
     0
102
RTVSPost2010Prop38
140
0.0
102
RTVSPost2010PropOp38
 70
     0
102
RTVSPost2010Prop39
140
1.0
102
RTVSPost2010PropOp39
 70
     0
102
RTVSPost2010Prop40
 90
        0
102
RTVSPost2010PropOp40
 70
     0
102
RTVSPost2010Prop41ColorIndex
 90
       18
102
RTVSPost2010Prop41ColorRGB
 90
        0
102
RTVSPost2010PropOp41
 70
     0
102
RTVSPost2010Prop42
 90
       50
102
RTVSPost2010PropOp42
 70
     0
102
RTVSPost2010Prop43
 90
        3
102
RTVSPost2010PropOp43
 70
     0
102
RTVSPost2010Prop44ColorIndex
 90
        5
102
RTVSPost2010Prop44ColorRGB
 90
      255
102
RTVSPost2010PropOp44
 70
     0
102
RTVSPost2010Prop45
280
     0
102
RTVSPost2010PropOp45
 70
     0
102
RTVSPost2010Prop46
 90
       50
102
RTVSPost2010PropOp46
 70
     0
102
RTVSPost2010Prop47
 90
       50
102
RTVSPost2010PropOp47
 70
     0
102
RTVSPost2010Prop48
 90
       50
102
RTVSPost2010PropOp48
 70
     0
102
RTVSPost2010Prop49
280
     0
102
RTVSPost2010PropOp49
 70
     0
102
RTVSPost2010Prop50
 90
       50
102
RTVSPost2010PropOp50
 70
     0
102
RTVSPost2010Prop51ColorIndex
 90
      256
102
RTVSPost2010Prop51ColorRGB
 90
-16777216
102
RTVSPost2010PropOp51
 70
     0
102
RTVSPost2010Prop52
140
1.0
102
RTVSPost2010PropOp52
 70
     0
102
RTVSPost2010Prop53
 90
        2
102
RTVSPost2010PropOp53
 70
     0
102
RTVSPost2010Prop54
  1
strokes_ogs.tif
102
RTVSPost2010PropOp54
 70
     0
102
RTVSPost2010Prop55
280
     0
102
RTVSPost2010PropOp55
 70
     0
102
RTVSPost2010Prop56
140
1.0
102
RTVSPost2010PropOp56
 70
     0
102
RTVSPost2010Prop57
140
1.0
102
RTVSPost2010PropOp57
 70
     0
102
RTVSPropertyOp0
 70
     0
102
RTVSPropertyOp1
 70
     0
102
RTVSPropertyOp2
 70
     0
102
RTVSPropertyOp3
 70
     0
102
RTVSPropertyOp4
 70
     0
102
RTVSPropertyOp5
 70
     0
102
RTVSPropertyOp6
 70
     0
102
RTVSPropertyOp7
 70
     0
102
RTVSPropertyOp8
 70
     0
102
RTVSPropertyOp9
 70
     0
102
RTVSPropertyOp10
 70
     0
102
RTVSPropertyOp11
 70
     0
102
RTVSPropertyOp12
 70
     0
102
RTVSPropertyOp13
 70
     0
102
RTVSPropertyOp14
 70
     2
102
RTVSPropertyOp15
 70
     0
102
RTVSPropertyOp16
 70
     0
102
RTVSPropertyOp17
 70
     0
102
RTVSPropertyOp18
 70
     0
102
RTVSPropertyOp19
 70
     0
102
RTVSPropertyOp20
 70
     0
102
RTVSPropertyOp21
 70
     0
102
RTVSPropertyOp22
 70
     0
102
RTVSPropertyOp23
 70
     0
102
RTVSPropertyOp24
 70
     0
102
RTVSPropertyOp25
 70
     0
102
RTVSPropertyOp26
 70
     0
102
RTVSPropertyOp27
 70
     0
102
RTVSPropertyOp28
 70
     0
102
RTVSPropertyOp29
 70
     0
102
RTVSPropertyOp30
 70
     0
102
RTVSPropertyOp31
 70
     0
102
RTVSPropertyOp32
 70
     0
102
RTVSPropertyOp33
 70
     0
102
RTVSPropertyOp34
 70
     0
102
RTVSPropertyOp35
 70
     0
102
RTVSPropertyOp36
 70
     0
102
RTVSPropertyOp37
 70
     0
102
RTVSPropertyOp38
 70
     0
102
RTVSPropertyOp39
 70
     0
102
RTVSPropertyOp40
 70
     0
102
RTVSPropertyOp41
 70
     0
102
RTVSPropertyOp42
 70
     0
102
RTVSPropertyOp43
 70
     0
102
RTVSPropertyOp44
 70
     0
102
RTVSPropertyOp45
 70
     0
102
RTVSPropertyOp46
 70
     0
102
RTVSPropertyOp47
 70
     0
102
RTVSPropertyOp48
 70
     0
102
RTVSPropertyOp49
 70
     0
102
RTVSPropertyOp50
 70
     0
102
RTVSPropertyOp51
 70
     0
102
RTVSPropertyOp52
 70
     0
102
RTVSPropertyOp53
 70
     0
102
RTVSPropertyOp54
 70
     0
102
RTVSPropertyOp55
 70
     0
102
RTVSPropertyOp56
 70
     0
102
RTVSPropertyOp57
 70
     0
102
RTVSPropertyOp58
 70
     0
102
RTVSPropertyOp59
 70
     0
102
RTVSPropertyOp60
 70
     0
102
RTVSPropertyOp61
 70
     0
102
RTVSPropertyOp62
 70
     0
  0
XRECORD
  5
36A7
102
{ACAD_REACTORS
330
36A6
102
}
330
36A6
100
AcDbXrecord
280
     1
102
RTVSPost2010Prop28
280
     0
102
RTVSPost2010PropOp28
 70
     1
102
RTVSPost2010Prop29
280
     1
102
RTVSPost2010PropOp29
 70
     1
102
RTVSPost2010Prop30
280
     1
102
RTVSPost2010PropOp30
 70
     1
102
RTVSPost2010Prop31
280
     0
102
RTVSPost2010PropOp31
 70
     1
102
RTVSPost2010Prop32
280
     0
102
RTVSPost2010PropOp32
 70
     1
102
RTVSPost2010Prop33
280
     0
102
RTVSPost2010PropOp33
 70
     1
102
RTVSPost2010Prop34
280
     0
102
RTVSPost2010PropOp34
 70
     1
102
RTVSPost2010Prop35
280
     0
102
RTVSPost2010PropOp35
 70
     1
102
RTVSPost2010Prop36
280
     0
102
RTVSPost2010PropOp36
 70
     1
102
RTVSPost2010Prop37
 90
       50
102
RTVSPost2010PropOp37
 70
     1
102
RTVSPost2010Prop38
140
0.0
102
RTVSPost2010PropOp38
 70
     1
102
RTVSPost2010Prop39
140
1.0
102
RTVSPost2010PropOp39
 70
     1
102
RTVSPost2010Prop40
 90
        0
102
RTVSPost2010PropOp40
 70
     1
102
RTVSPost2010Prop41ColorIndex
 90
       18
102
RTVSPost2010Prop41ColorRGB
 90
        0
102
RTVSPost2010PropOp41
 70
     1
102
RTVSPost2010Prop42
 90
       50
102
RTVSPost2010PropOp42
 70
     1
102
RTVSPost2010Prop43
 90
        3
102
RTVSPost2010PropOp43
 70
     1
102
RTVSPost2010Prop44ColorIndex
 90
        5
102
RTVSPost2010Prop44ColorRGB
 90
      255
102
RTVSPost2010PropOp44
 70
     1
102
RTVSPost2010Prop45
280
     0
102
RTVSPost2010PropOp45
 70
     1
102
RTVSPost2010Prop46
 90
       50
102
RTVSPost2010PropOp46
 70
     1
102
RTVSPost2010Prop47
 90
       50
102
RTVSPost2010PropOp47
 70
     1
102
RTVSPost2010Prop48
 90
       50
102
RTVSPost2010PropOp48
 70
     1
102
RTVSPost2010Prop49
280
     0
102
RTVSPost2010PropOp49
 70
     1
102
RTVSPost2010Prop50
 90
       50
102
RTVSPost2010PropOp50
 70
     1
102
RTVSPost2010Prop51ColorIndex
 90
      256
102
RTVSPost2010Prop51ColorRGB
 90
-16777216
102
RTVSPost2010PropOp51
 70
     0
102
RTVSPost2010Prop52
140
1.0
102
RTVSPost2010PropOp52
 70
     0
102
RTVSPost2010Prop53
 90
        2
102
RTVSPost2010PropOp53
 70
     1
102
RTVSPost2010Prop54
  1
strokes_ogs.tif
102
RTVSPost2010PropOp54
 70
     1
102
RTVSPost2010Prop55
280
     0
102
RTVSPost2010PropOp55
 70
     1
102
RTVSPost2010Prop56
140
1.0
102
RTVSPost2010PropOp56
 70
     1
102
RTVSPost2010Prop57
140
1.0
102
RTVSPost2010PropOp57
 70
     1
102
RTVSPropertyOp0
 70
     1
102
RTVSPropertyOp1
 70
     1
102
RTVSPropertyOp2
 70
     1
102
RTVSPropertyOp3
 70
     1
102
RTVSPropertyOp4
 70
     1
102
RTVSPropertyOp5
 70
     1
102
RTVSPropertyOp6
 70
     1
102
RTVSPropertyOp7
 70
     1
102
RTVSPropertyOp8
 70
     1
102
RTVSPropertyOp9
 70
     1
102
RTVSPropertyOp10
 70
     1
102
RTVSPropertyOp11
 70
     1
102
RTVSPropertyOp12
 70
     1
102
RTVSPropertyOp13
 70
     1
102
RTVSPropertyOp14
 70
     1
102
RTVSPropertyOp15
 70
     1
102
RTVSPropertyOp16
 70
     1
102
RTVSPropertyOp17
 70
     1
102
RTVSPropertyOp18
 70
     1
102
RTVSPropertyOp19
 70
     1
102
RTVSPropertyOp20
 70
     1
102
RTVSPropertyOp21
 70
     1
102
RTVSPropertyOp22
 70
     1
102
RTVSPropertyOp23
 70
     1
102
RTVSPropertyOp24
 70
     1
102
RTVSPropertyOp25
 70
     1
102
RTVSPropertyOp26
 70
     1
102
RTVSPropertyOp27
 70
     1
102
RTVSPropertyOp28
 70
     1
102
RTVSPropertyOp29
 70
     1
102
RTVSPropertyOp30
 70
     1
102
RTVSPropertyOp31
 70
     1
102
RTVSPropertyOp32
 70
     1
102
RTVSPropertyOp33
 70
     1
102
RTVSPropertyOp34
 70
     1
102
RTVSPropertyOp35
 70
     1
102
RTVSPropertyOp36
 70
     1
102
RTVSPropertyOp37
 70
     1
102
RTVSPropertyOp38
 70
     1
102
RTVSPropertyOp39
 70
     1
102
RTVSPropertyOp40
 70
     1
102
RTVSPropertyOp41
 70
     1
102
RTVSPropertyOp42
 70
     1
102
RTVSPropertyOp43
 70
     1
102
RTVSPropertyOp44
 70
     1
102
RTVSPropertyOp45
 70
     1
102
RTVSPropertyOp46
 70
     1
102
RTVSPropertyOp47
 70
     1
102
RTVSPropertyOp48
 70
     1
102
RTVSPropertyOp49
 70
     1
102
RTVSPropertyOp50
 70
     1
102
RTVSPropertyOp51
 70
     0
102
RTVSPropertyOp52
 70
     0
102
RTVSPropertyOp53
 70
     1
102
RTVSPropertyOp54
 70
     1
102
RTVSPropertyOp55
 70
     1
102
RTVSPropertyOp56
 70
     1
102
RTVSPropertyOp57
 70
     1
102
RTVSPropertyOp58
 70
     1
102
RTVSPropertyOp59
 70
     1
102
RTVSPropertyOp60
 70
     1
102
RTVSPropertyOp61
 70
     1
102
RTVSPropertyOp62
 70
     1
  0
XRECORD
  5
36B9
102
{ACAD_REACTORS
330
36B8
102
}
330
36B8
100
AcDbXrecord
280
     1
102
RTVSPost2010Prop28
280
     0
102
RTVSPost2010PropOp28
 70
     0
102
RTVSPost2010Prop29
280
     1
102
RTVSPost2010PropOp29
 70
     0
102
RTVSPost2010Prop30
280
     1
102
RTVSPost2010PropOp30
 70
     0
102
RTVSPost2010Prop31
280
     0
102
RTVSPost2010PropOp31
 70
     0
102
RTVSPost2010Prop32
280
     0
102
RTVSPost2010PropOp32
 70
     0
102
RTVSPost2010Prop33
280
     0
102
RTVSPost2010PropOp33
 70
     0
102
RTVSPost2010Prop34
280
     0
102
RTVSPost2010PropOp34
 70
     0
102
RTVSPost2010Prop35
280
     0
102
RTVSPost2010PropOp35
 70
     0
102
RTVSPost2010Prop36
280
     0
102
RTVSPost2010PropOp36
 70
     0
102
RTVSPost2010Prop37
 90
       50
102
RTVSPost2010PropOp37
 70
     0
102
RTVSPost2010Prop38
140
0.0
102
RTVSPost2010PropOp38
 70
     0
102
RTVSPost2010Prop39
140
1.0
102
RTVSPost2010PropOp39
 70
     0
102
RTVSPost2010Prop40
 90
        0
102
RTVSPost2010PropOp40
 70
     0
102
RTVSPost2010Prop41ColorIndex
 90
       18
102
RTVSPost2010Prop41ColorRGB
 90
        0
102
RTVSPost2010PropOp41
 70
     0
102
RTVSPost2010Prop42
 90
       50
102
RTVSPost2010PropOp42
 70
     0
102
RTVSPost2010Prop43
 90
        3
102
RTVSPost2010PropOp43
 70
     0
102
RTVSPost2010Prop44ColorIndex
 90
        5
102
RTVSPost2010Prop44ColorRGB
 90
      255
102
RTVSPost2010PropOp44
 70
     0
102
RTVSPost2010Prop45
280
     0
102
RTVSPost2010PropOp45
 70
     0
102
RTVSPost2010Prop46
 90
       50
102
RTVSPost2010PropOp46
 70
     0
102
RTVSPost2010Prop47
 90
       50
102
RTVSPost2010PropOp47
 70
     0
102
RTVSPost2010Prop48
 90
       50
102
RTVSPost2010PropOp48
 70
     0
102
RTVSPost2010Prop49
280
     0
102
RTVSPost2010PropOp49
 70
     0
102
RTVSPost2010Prop50
 90
       50
102
RTVSPost2010PropOp50
 70
     0
102
RTVSPost2010Prop51ColorIndex
 90
      256
102
RTVSPost2010Prop51ColorRGB
 90
-16777216
102
RTVSPost2010PropOp51
 70
     0
102
RTVSPost2010Prop52
140
1.0
102
RTVSPost2010PropOp52
 70
     0
102
RTVSPost2010Prop53
 90
        2
102
RTVSPost2010PropOp53
 70
     0
102
RTVSPost2010Prop54
  1
strokes_ogs.tif
102
RTVSPost2010PropOp54
 70
     0
102
RTVSPost2010Prop55
280
     0
102
RTVSPost2010PropOp55
 70
     0
102
RTVSPost2010Prop56
140
1.0
102
RTVSPost2010PropOp56
 70
     0
102
RTVSPost2010Prop57
140
1.0
102
RTVSPost2010PropOp57
 70
     0
102
RTVSPropertyOp0
 70
     0
102
RTVSPropertyOp1
 70
     0
102
RTVSPropertyOp2
 70
     0
102
RTVSPropertyOp3
 70
     0
102
RTVSPropertyOp4
 70
     0
102
RTVSPropertyOp5
 70
     0
102
RTVSPropertyOp6
 70
     0
102
RTVSPropertyOp7
 70
     0
102
RTVSPropertyOp8
 70
     0
102
RTVSPropertyOp9
 70
     0
102
RTVSPropertyOp10
 70
     0
102
RTVSPropertyOp11
 70
     0
102
RTVSPropertyOp12
 70
     0
102
RTVSPropertyOp13
 70
     0
102
RTVSPropertyOp14
 70
     2
102
RTVSPropertyOp15
 70
     0
102
RTVSPropertyOp16
 70
     0
102
RTVSPropertyOp17
 70
     0
102
RTVSPropertyOp18
 70
     0
102
RTVSPropertyOp19
 70
     0
102
RTVSPropertyOp20
 70
     0
102
RTVSPropertyOp21
 70
     0
102
RTVSPropertyOp22
 70
     0
102
RTVSPropertyOp23
 70
     0
102
RTVSPropertyOp24
 70
     0
102
RTVSPropertyOp25
 70
     0
102
RTVSPropertyOp26
 70
     0
102
RTVSPropertyOp27
 70
     0
102
RTVSPropertyOp28
 70
     0
102
RTVSPropertyOp29
 70
     0
102
RTVSPropertyOp30
 70
     0
102
RTVSPropertyOp31
 70
     0
102
RTVSPropertyOp32
 70
     0
102
RTVSPropertyOp33
 70
     0
102
RTVSPropertyOp34
 70
     0
102
RTVSPropertyOp35
 70
     0
102
RTVSPropertyOp36
 70
     0
102
RTVSPropertyOp37
 70
     0
102
RTVSPropertyOp38
 70
     0
102
RTVSPropertyOp39
 70
     0
102
RTVSPropertyOp40
 70
     0
102
RTVSPropertyOp41
 70
     0
102
RTVSPropertyOp42
 70
     0
102
RTVSPropertyOp43
 70
     0
102
RTVSPropertyOp44
 70
     0
102
RTVSPropertyOp45
 70
     0
102
RTVSPropertyOp46
 70
     0
102
RTVSPropertyOp47
 70
     0
102
RTVSPropertyOp48
 70
     0
102
RTVSPropertyOp49
 70
     0
102
RTVSPropertyOp50
 70
     0
102
RTVSPropertyOp51
 70
     0
102
RTVSPropertyOp52
 70
     0
102
RTVSPropertyOp53
 70
     0
102
RTVSPropertyOp54
 70
     0
102
RTVSPropertyOp55
 70
     0
102
RTVSPropertyOp56
 70
     0
102
RTVSPropertyOp57
 70
     0
102
RTVSPropertyOp58
 70
     0
102
RTVSPropertyOp59
 70
     0
102
RTVSPropertyOp60
 70
     0
102
RTVSPropertyOp61
 70
     0
102
RTVSPropertyOp62
 70
     0
  0
XRECORD
  5
369F
102
{ACAD_REACTORS
330
369E
102
}
330
369E
100
AcDbXrecord
280
     1
102
RTVSPost2010Prop28
280
     0
102
RTVSPost2010PropOp28
 70
     1
102
RTVSPost2010Prop29
280
     1
102
RTVSPost2010PropOp29
 70
     1
102
RTVSPost2010Prop30
280
     1
102
RTVSPost2010PropOp30
 70
     1
102
RTVSPost2010Prop31
280
     0
102
RTVSPost2010PropOp31
 70
     1
102
RTVSPost2010Prop32
280
     0
102
RTVSPost2010PropOp32
 70
     1
102
RTVSPost2010Prop33
280
     0
102
RTVSPost2010PropOp33
 70
     1
102
RTVSPost2010Prop34
280
     0
102
RTVSPost2010PropOp34
 70
     1
102
RTVSPost2010Prop35
280
     0
102
RTVSPost2010PropOp35
 70
     1
102
RTVSPost2010Prop36
280
     0
102
RTVSPost2010PropOp36
 70
     1
102
RTVSPost2010Prop37
 90
       50
102
RTVSPost2010PropOp37
 70
     1
102
RTVSPost2010Prop38
140
0.0
102
RTVSPost2010PropOp38
 70
     1
102
RTVSPost2010Prop39
140
1.0
102
RTVSPost2010PropOp39
 70
     1
102
RTVSPost2010Prop40
 90
        0
102
RTVSPost2010PropOp40
 70
     1
102
RTVSPost2010Prop41ColorIndex
 90
       18
102
RTVSPost2010Prop41ColorRGB
 90
        0
102
RTVSPost2010PropOp41
 70
     1
102
RTVSPost2010Prop42
 90
       50
102
RTVSPost2010PropOp42
 70
     1
102
RTVSPost2010Prop43
 90
        3
102
RTVSPost2010PropOp43
 70
     1
102
RTVSPost2010Prop44ColorIndex
 90
        5
102
RTVSPost2010Prop44ColorRGB
 90
      255
102
RTVSPost2010PropOp44
 70
     1
102
RTVSPost2010Prop45
280
     0
102
RTVSPost2010PropOp45
 70
     1
102
RTVSPost2010Prop46
 90
       50
102
RTVSPost2010PropOp46
 70
     1
102
RTVSPost2010Prop47
 90
       50
102
RTVSPost2010PropOp47
 70
     1
102
RTVSPost2010Prop48
 90
       50
102
RTVSPost2010PropOp48
 70
     1
102
RTVSPost2010Prop49
280
     0
102
RTVSPost2010PropOp49
 70
     1
102
RTVSPost2010Prop50
 90
       50
102
RTVSPost2010PropOp50
 70
     1
102
RTVSPost2010Prop51ColorIndex
 90
      256
102
RTVSPost2010Prop51ColorRGB
 90
-16777216
102
RTVSPost2010PropOp51
 70
     0
102
RTVSPost2010Prop52
140
1.0
102
RTVSPost2010PropOp52
 70
     0
102
RTVSPost2010Prop53
 90
        2
102
RTVSPost2010PropOp53
 70
     1
102
RTVSPost2010Prop54
  1
strokes_ogs.tif
102
RTVSPost2010PropOp54
 70
     1
102
RTVSPost2010Prop55
280
     0
102
RTVSPost2010PropOp55
 70
     1
102
RTVSPost2010Prop56
140
1.0
102
RTVSPost2010PropOp56
 70
     1
102
RTVSPost2010Prop57
140
1.0
102
RTVSPost2010PropOp57
 70
     1
102
RTVSPropertyOp0
 70
     1
102
RTVSPropertyOp1
 70
     1
102
RTVSPropertyOp2
 70
     1
102
RTVSPropertyOp3
 70
     1
102
RTVSPropertyOp4
 70
     1
102
RTVSPropertyOp5
 70
     1
102
RTVSPropertyOp6
 70
     1
102
RTVSPropertyOp7
 70
     1
102
RTVSPropertyOp8
 70
     1
102
RTVSPropertyOp9
 70
     1
102
RTVSPropertyOp10
 70
     1
102
RTVSPropertyOp11
 70
     1
102
RTVSPropertyOp12
 70
     1
102
RTVSPropertyOp13
 70
     1
102
RTVSPropertyOp14
 70
     1
102
RTVSPropertyOp15
 70
     1
102
RTVSPropertyOp16
 70
     1
102
RTVSPropertyOp17
 70
     1
102
RTVSPropertyOp18
 70
     1
102
RTVSPropertyOp19
 70
     1
102
RTVSPropertyOp20
 70
     1
102
RTVSPropertyOp21
 70
     1
102
RTVSPropertyOp22
 70
     1
102
RTVSPropertyOp23
 70
     1
102
RTVSPropertyOp24
 70
     1
102
RTVSPropertyOp25
 70
     1
102
RTVSPropertyOp26
 70
     1
102
RTVSPropertyOp27
 70
     1
102
RTVSPropertyOp28
 70
     1
102
RTVSPropertyOp29
 70
     1
102
RTVSPropertyOp30
 70
     1
102
RTVSPropertyOp31
 70
     1
102
RTVSPropertyOp32
 70
     1
102
RTVSPropertyOp33
 70
     1
102
RTVSPropertyOp34
 70
     1
102
RTVSPropertyOp35
 70
     1
102
RTVSPropertyOp36
 70
     1
102
RTVSPropertyOp37
 70
     1
102
RTVSPropertyOp38
 70
     1
102
RTVSPropertyOp39
 70
     1
102
RTVSPropertyOp40
 70
     1
102
RTVSPropertyOp41
 70
     1
102
RTVSPropertyOp42
 70
     1
102
RTVSPropertyOp43
 70
     1
102
RTVSPropertyOp44
 70
     1
102
RTVSPropertyOp45
 70
     1
102
RTVSPropertyOp46
 70
     1
102
RTVSPropertyOp47
 70
     1
102
RTVSPropertyOp48
 70
     1
102
RTVSPropertyOp49
 70
     1
102
RTVSPropertyOp50
 70
     1
102
RTVSPropertyOp51
 70
     0
102
RTVSPropertyOp52
 70
     0
102
RTVSPropertyOp53
 70
     1
102
RTVSPropertyOp54
 70
     1
102
RTVSPropertyOp55
 70
     1
102
RTVSPropertyOp56
 70
     1
102
RTVSPropertyOp57
 70
     1
102
RTVSPropertyOp58
 70
     1
102
RTVSPropertyOp59
 70
     1
102
RTVSPropertyOp60
 70
     1
102
RTVSPropertyOp61
 70
     1
102
RTVSPropertyOp62
 70
     1
  0
XRECORD
  5
36B5
102
{ACAD_REACTORS
330
36B4
102
}
330
36B4
100
AcDbXrecord
280
     1
102
RTVSPost2010Prop28
280
     0
102
RTVSPost2010PropOp28
 70
     1
102
RTVSPost2010Prop29
280
     1
102
RTVSPost2010PropOp29
 70
     1
102
RTVSPost2010Prop30
280
     1
102
RTVSPost2010PropOp30
 70
     1
102
RTVSPost2010Prop31
280
     0
102
RTVSPost2010PropOp31
 70
     1
102
RTVSPost2010Prop32
280
     0
102
RTVSPost2010PropOp32
 70
     1
102
RTVSPost2010Prop33
280
     0
102
RTVSPost2010PropOp33
 70
     1
102
RTVSPost2010Prop34
280
     0
102
RTVSPost2010PropOp34
 70
     1
102
RTVSPost2010Prop35
280
     0
102
RTVSPost2010PropOp35
 70
     1
102
RTVSPost2010Prop36
280
     0
102
RTVSPost2010PropOp36
 70
     1
102
RTVSPost2010Prop37
 90
       50
102
RTVSPost2010PropOp37
 70
     1
102
RTVSPost2010Prop38
140
0.0
102
RTVSPost2010PropOp38
 70
     1
102
RTVSPost2010Prop39
140
1.0
102
RTVSPost2010PropOp39
 70
     1
102
RTVSPost2010Prop40
 90
        0
102
RTVSPost2010PropOp40
 70
     1
102
RTVSPost2010Prop41ColorIndex
 90
       18
102
RTVSPost2010Prop41ColorRGB
 90
        0
102
RTVSPost2010PropOp41
 70
     1
102
RTVSPost2010Prop42
 90
       50
102
RTVSPost2010PropOp42
 70
     1
102
RTVSPost2010Prop43
 90
        3
102
RTVSPost2010PropOp43
 70
     1
102
RTVSPost2010Prop44ColorIndex
 90
        5
102
RTVSPost2010Prop44ColorRGB
 90
      255
102
RTVSPost2010PropOp44
 70
     1
102
RTVSPost2010Prop45
280
     0
102
RTVSPost2010PropOp45
 70
     1
102
RTVSPost2010Prop46
 90
       50
102
RTVSPost2010PropOp46
 70
     1
102
RTVSPost2010Prop47
 90
       50
102
RTVSPost2010PropOp47
 70
     1
102
RTVSPost2010Prop48
 90
       50
102
RTVSPost2010PropOp48
 70
     1
102
RTVSPost2010Prop49
280
     0
102
RTVSPost2010PropOp49
 70
     1
102
RTVSPost2010Prop50
 90
       50
102
RTVSPost2010PropOp50
 70
     1
102
RTVSPost2010Prop51ColorIndex
 90
      256
102
RTVSPost2010Prop51ColorRGB
 90
-16777216
102
RTVSPost2010PropOp51
 70
     0
102
RTVSPost2010Prop52
140
1.0
102
RTVSPost2010PropOp52
 70
     0
102
RTVSPost2010Prop53
 90
        2
102
RTVSPost2010PropOp53
 70
     1
102
RTVSPost2010Prop54
  1
strokes_ogs.tif
102
RTVSPost2010PropOp54
 70
     1
102
RTVSPost2010Prop55
280
     0
102
RTVSPost2010PropOp55
 70
     1
102
RTVSPost2010Prop56
140
1.0
102
RTVSPost2010PropOp56
 70
     1
102
RTVSPost2010Prop57
140
1.0
102
RTVSPost2010PropOp57
 70
     1
102
RTVSPropertyOp0
 70
     1
102
RTVSPropertyOp1
 70
     1
102
RTVSPropertyOp2
 70
     1
102
RTVSPropertyOp3
 70
     1
102
RTVSPropertyOp4
 70
     1
102
RTVSPropertyOp5
 70
     1
102
RTVSPropertyOp6
 70
     1
102
RTVSPropertyOp7
 70
     1
102
RTVSPropertyOp8
 70
     1
102
RTVSPropertyOp9
 70
     1
102
RTVSPropertyOp10
 70
     1
102
RTVSPropertyOp11
 70
     1
102
RTVSPropertyOp12
 70
     1
102
RTVSPropertyOp13
 70
     1
102
RTVSPropertyOp14
 70
     1
102
RTVSPropertyOp15
 70
     1
102
RTVSPropertyOp16
 70
     1
102
RTVSPropertyOp17
 70
     1
102
RTVSPropertyOp18
 70
     1
102
RTVSPropertyOp19
 70
     1
102
RTVSPropertyOp20
 70
     1
102
RTVSPropertyOp21
 70
     1
102
RTVSPropertyOp22
 70
     1
102
RTVSPropertyOp23
 70
     1
102
RTVSPropertyOp24
 70
     1
102
RTVSPropertyOp25
 70
     1
102
RTVSPropertyOp26
 70
     1
102
RTVSPropertyOp27
 70
     1
102
RTVSPropertyOp28
 70
     1
102
RTVSPropertyOp29
 70
     1
102
RTVSPropertyOp30
 70
     1
102
RTVSPropertyOp31
 70
     1
102
RTVSPropertyOp32
 70
     1
102
RTVSPropertyOp33
 70
     1
102
RTVSPropertyOp34
 70
     1
102
RTVSPropertyOp35
 70
     1
102
RTVSPropertyOp36
 70
     1
102
RTVSPropertyOp37
 70
     1
102
RTVSPropertyOp38
 70
     1
102
RTVSPropertyOp39
 70
     1
102
RTVSPropertyOp40
 70
     1
102
RTVSPropertyOp41
 70
     1
102
RTVSPropertyOp42
 70
     1
102
RTVSPropertyOp43
 70
     1
102
RTVSPropertyOp44
 70
     1
102
RTVSPropertyOp45
 70
     1
102
RTVSPropertyOp46
 70
     1
102
RTVSPropertyOp47
 70
     1
102
RTVSPropertyOp48
 70
     1
102
RTVSPropertyOp49
 70
     1
102
RTVSPropertyOp50
 70
     1
102
RTVSPropertyOp51
 70
     0
102
RTVSPropertyOp52
 70
     0
102
RTVSPropertyOp53
 70
     1
102
RTVSPropertyOp54
 70
     1
102
RTVSPropertyOp55
 70
     1
102
RTVSPropertyOp56
 70
     1
102
RTVSPropertyOp57
 70
     1
102
RTVSPropertyOp58
 70
     1
102
RTVSPropertyOp59
 70
     1
102
RTVSPropertyOp60
 70
     1
102
RTVSPropertyOp61
 70
     1
102
RTVSPropertyOp62
 70
     1
  0
XRECORD
  5
36B3
102
{ACAD_REACTORS
330
36B2
102
}
330
36B2
100
AcDbXrecord
280
     1
102
RTVSPost2010Prop28
280
     0
102
RTVSPost2010PropOp28
 70
     1
102
RTVSPost2010Prop29
280
     1
102
RTVSPost2010PropOp29
 70
     1
102
RTVSPost2010Prop30
280
     1
102
RTVSPost2010PropOp30
 70
     1
102
RTVSPost2010Prop31
280
     0
102
RTVSPost2010PropOp31
 70
     1
102
RTVSPost2010Prop32
280
     0
102
RTVSPost2010PropOp32
 70
     1
102
RTVSPost2010Prop33
280
     0
102
RTVSPost2010PropOp33
 70
     1
102
RTVSPost2010Prop34
280
     0
102
RTVSPost2010PropOp34
 70
     1
102
RTVSPost2010Prop35
280
     0
102
RTVSPost2010PropOp35
 70
     1
102
RTVSPost2010Prop36
280
     0
102
RTVSPost2010PropOp36
 70
     1
102
RTVSPost2010Prop37
 90
       50
102
RTVSPost2010PropOp37
 70
     1
102
RTVSPost2010Prop38
140
0.0
102
RTVSPost2010PropOp38
 70
     1
102
RTVSPost2010Prop39
140
1.0
102
RTVSPost2010PropOp39
 70
     1
102
RTVSPost2010Prop40
 90
        0
102
RTVSPost2010PropOp40
 70
     1
102
RTVSPost2010Prop41ColorIndex
 90
       18
102
RTVSPost2010Prop41ColorRGB
 90
        0
102
RTVSPost2010PropOp41
 70
     1
102
RTVSPost2010Prop42
 90
       50
102
RTVSPost2010PropOp42
 70
     1
102
RTVSPost2010Prop43
 90
        3
102
RTVSPost2010PropOp43
 70
     1
102
RTVSPost2010Prop44ColorIndex
 90
        5
102
RTVSPost2010Prop44ColorRGB
 90
      255
102
RTVSPost2010PropOp44
 70
     1
102
RTVSPost2010Prop45
280
     0
102
RTVSPost2010PropOp45
 70
     1
102
RTVSPost2010Prop46
 90
       50
102
RTVSPost2010PropOp46
 70
     1
102
RTVSPost2010Prop47
 90
       50
102
RTVSPost2010PropOp47
 70
     1
102
RTVSPost2010Prop48
 90
       50
102
RTVSPost2010PropOp48
 70
     1
102
RTVSPost2010Prop49
280
     0
102
RTVSPost2010PropOp49
 70
     1
102
RTVSPost2010Prop50
 90
       50
102
RTVSPost2010PropOp50
 70
     1
102
RTVSPost2010Prop51ColorIndex
 90
      256
102
RTVSPost2010Prop51ColorRGB
 90
-16777216
102
RTVSPost2010PropOp51
 70
     0
102
RTVSPost2010Prop52
140
1.0
102
RTVSPost2010PropOp52
 70
     0
102
RTVSPost2010Prop53
 90
        2
102
RTVSPost2010PropOp53
 70
     1
102
RTVSPost2010Prop54
  1
strokes_ogs.tif
102
RTVSPost2010PropOp54
 70
     1
102
RTVSPost2010Prop55
280
     0
102
RTVSPost2010PropOp55
 70
     1
102
RTVSPost2010Prop56
140
1.0
102
RTVSPost2010PropOp56
 70
     1
102
RTVSPost2010Prop57
140
1.0
102
RTVSPost2010PropOp57
 70
     1
102
RTVSPropertyOp0
 70
     1
102
RTVSPropertyOp1
 70
     1
102
RTVSPropertyOp2
 70
     1
102
RTVSPropertyOp3
 70
     1
102
RTVSPropertyOp4
 70
     1
102
RTVSPropertyOp5
 70
     1
102
RTVSPropertyOp6
 70
     1
102
RTVSPropertyOp7
 70
     1
102
RTVSPropertyOp8
 70
     1
102
RTVSPropertyOp9
 70
     1
102
RTVSPropertyOp10
 70
     1
102
RTVSPropertyOp11
 70
     1
102
RTVSPropertyOp12
 70
     1
102
RTVSPropertyOp13
 70
     1
102
RTVSPropertyOp14
 70
     1
102
RTVSPropertyOp15
 70
     1
102
RTVSPropertyOp16
 70
     1
102
RTVSPropertyOp17
 70
     1
102
RTVSPropertyOp18
 70
     1
102
RTVSPropertyOp19
 70
     1
102
RTVSPropertyOp20
 70
     1
102
RTVSPropertyOp21
 70
     1
102
RTVSPropertyOp22
 70
     1
102
RTVSPropertyOp23
 70
     1
102
RTVSPropertyOp24
 70
     1
102
RTVSPropertyOp25
 70
     1
102
RTVSPropertyOp26
 70
     1
102
RTVSPropertyOp27
 70
     1
102
RTVSPropertyOp28
 70
     1
102
RTVSPropertyOp29
 70
     1
102
RTVSPropertyOp30
 70
     1
102
RTVSPropertyOp31
 70
     1
102
RTVSPropertyOp32
 70
     1
102
RTVSPropertyOp33
 70
     1
102
RTVSPropertyOp34
 70
     1
102
RTVSPropertyOp35
 70
     1
102
RTVSPropertyOp36
 70
     1
102
RTVSPropertyOp37
 70
     1
102
RTVSPropertyOp38
 70
     1
102
RTVSPropertyOp39
 70
     1
102
RTVSPropertyOp40
 70
     1
102
RTVSPropertyOp41
 70
     1
102
RTVSPropertyOp42
 70
     1
102
RTVSPropertyOp43
 70
     1
102
RTVSPropertyOp44
 70
     1
102
RTVSPropertyOp45
 70
     1
102
RTVSPropertyOp46
 70
     1
102
RTVSPropertyOp47
 70
     1
102
RTVSPropertyOp48
 70
     1
102
RTVSPropertyOp49
 70
     1
102
RTVSPropertyOp50
 70
     1
102
RTVSPropertyOp51
 70
     0
102
RTVSPropertyOp52
 70
     0
102
RTVSPropertyOp53
 70
     1
102
RTVSPropertyOp54
 70
     1
102
RTVSPropertyOp55
 70
     1
102
RTVSPropertyOp56
 70
     1
102
RTVSPropertyOp57
 70
     1
102
RTVSPropertyOp58
 70
     1
102
RTVSPropertyOp59
 70
     1
102
RTVSPropertyOp60
 70
     1
102
RTVSPropertyOp61
 70
     1
102
RTVSPropertyOp62
 70
     1
  0
XRECORD
  5
36AD
102
{ACAD_REACTORS
330
36AC
102
}
330
36AC
100
AcDbXrecord
280
     1
102
RTVSPost2010Prop28
280
     0
102
RTVSPost2010PropOp28
 70
     1
102
RTVSPost2010Prop29
280
     1
102
RTVSPost2010PropOp29
 70
     1
102
RTVSPost2010Prop30
280
     1
102
RTVSPost2010PropOp30
 70
     1
102
RTVSPost2010Prop31
280
     0
102
RTVSPost2010PropOp31
 70
     1
102
RTVSPost2010Prop32
280
     0
102
RTVSPost2010PropOp32
 70
     1
102
RTVSPost2010Prop33
280
     0
102
RTVSPost2010PropOp33
 70
     1
102
RTVSPost2010Prop34
280
     0
102
RTVSPost2010PropOp34
 70
     1
102
RTVSPost2010Prop35
280
     0
102
RTVSPost2010PropOp35
 70
     1
102
RTVSPost2010Prop36
280
     0
102
RTVSPost2010PropOp36
 70
     1
102
RTVSPost2010Prop37
 90
       50
102
RTVSPost2010PropOp37
 70
     1
102
RTVSPost2010Prop38
140
0.0
102
RTVSPost2010PropOp38
 70
     1
102
RTVSPost2010Prop39
140
1.0
102
RTVSPost2010PropOp39
 70
     1
102
RTVSPost2010Prop40
 90
        0
102
RTVSPost2010PropOp40
 70
     1
102
RTVSPost2010Prop41ColorIndex
 90
       18
102
RTVSPost2010Prop41ColorRGB
 90
        0
102
RTVSPost2010PropOp41
 70
     1
102
RTVSPost2010Prop42
 90
       50
102
RTVSPost2010PropOp42
 70
     1
102
RTVSPost2010Prop43
 90
        3
102
RTVSPost2010PropOp43
 70
     1
102
RTVSPost2010Prop44ColorIndex
 90
        5
102
RTVSPost2010Prop44ColorRGB
 90
      255
102
RTVSPost2010PropOp44
 70
     1
102
RTVSPost2010Prop45
280
     0
102
RTVSPost2010PropOp45
 70
     1
102
RTVSPost2010Prop46
 90
       50
102
RTVSPost2010PropOp46
 70
     1
102
RTVSPost2010Prop47
 90
       50
102
RTVSPost2010PropOp47
 70
     1
102
RTVSPost2010Prop48
 90
       50
102
RTVSPost2010PropOp48
 70
     1
102
RTVSPost2010Prop49
280
     0
102
RTVSPost2010PropOp49
 70
     1
102
RTVSPost2010Prop50
 90
       50
102
RTVSPost2010PropOp50
 70
     1
102
RTVSPost2010Prop51ColorIndex
 90
      256
102
RTVSPost2010Prop51ColorRGB
 90
-16777216
102
RTVSPost2010PropOp51
 70
     0
102
RTVSPost2010Prop52
140
1.0
102
RTVSPost2010PropOp52
 70
     0
102
RTVSPost2010Prop53
 90
        2
102
RTVSPost2010PropOp53
 70
     1
102
RTVSPost2010Prop54
  1
strokes_ogs.tif
102
RTVSPost2010PropOp54
 70
     1
102
RTVSPost2010Prop55
280
     0
102
RTVSPost2010PropOp55
 70
     1
102
RTVSPost2010Prop56
140
1.0
102
RTVSPost2010PropOp56
 70
     1
102
RTVSPost2010Prop57
140
1.0
102
RTVSPost2010PropOp57
 70
     1
102
RTVSPropertyOp0
 70
     1
102
RTVSPropertyOp1
 70
     1
102
RTVSPropertyOp2
 70
     1
102
RTVSPropertyOp3
 70
     1
102
RTVSPropertyOp4
 70
     1
102
RTVSPropertyOp5
 70
     1
102
RTVSPropertyOp6
 70
     1
102
RTVSPropertyOp7
 70
     1
102
RTVSPropertyOp8
 70
     1
102
RTVSPropertyOp9
 70
     1
102
RTVSPropertyOp10
 70
     1
102
RTVSPropertyOp11
 70
     1
102
RTVSPropertyOp12
 70
     1
102
RTVSPropertyOp13
 70
     1
102
RTVSPropertyOp14
 70
     1
102
RTVSPropertyOp15
 70
     1
102
RTVSPropertyOp16
 70
     1
102
RTVSPropertyOp17
 70
     1
102
RTVSPropertyOp18
 70
     1
102
RTVSPropertyOp19
 70
     1
102
RTVSPropertyOp20
 70
     1
102
RTVSPropertyOp21
 70
     1
102
RTVSPropertyOp22
 70
     1
102
RTVSPropertyOp23
 70
     1
102
RTVSPropertyOp24
 70
     1
102
RTVSPropertyOp25
 70
     1
102
RTVSPropertyOp26
 70
     1
102
RTVSPropertyOp27
 70
     1
102
RTVSPropertyOp28
 70
     1
102
RTVSPropertyOp29
 70
     1
102
RTVSPropertyOp30
 70
     1
102
RTVSPropertyOp31
 70
     1
102
RTVSPropertyOp32
 70
     1
102
RTVSPropertyOp33
 70
     1
102
RTVSPropertyOp34
 70
     1
102
RTVSPropertyOp35
 70
     1
102
RTVSPropertyOp36
 70
     1
102
RTVSPropertyOp37
 70
     1
102
RTVSPropertyOp38
 70
     1
102
RTVSPropertyOp39
 70
     1
102
RTVSPropertyOp40
 70
     1
102
RTVSPropertyOp41
 70
     1
102
RTVSPropertyOp42
 70
     1
102
RTVSPropertyOp43
 70
     1
102
RTVSPropertyOp44
 70
     1
102
RTVSPropertyOp45
 70
     1
102
RTVSPropertyOp46
 70
     1
102
RTVSPropertyOp47
 70
     1
102
RTVSPropertyOp48
 70
     1
102
RTVSPropertyOp49
 70
     1
102
RTVSPropertyOp50
 70
     1
102
RTVSPropertyOp51
 70
     0
102
RTVSPropertyOp52
 70
     0
102
RTVSPropertyOp53
 70
     1
102
RTVSPropertyOp54
 70
     1
102
RTVSPropertyOp55
 70
     1
102
RTVSPropertyOp56
 70
     1
102
RTVSPropertyOp57
 70
     1
102
RTVSPropertyOp58
 70
     1
102
RTVSPropertyOp59
 70
     1
102
RTVSPropertyOp60
 70
     1
102
RTVSPropertyOp61
 70
     1
102
RTVSPropertyOp62
 70
     1
  0
XRECORD
  5
36AF
102
{ACAD_REACTORS
330
36AE
102
}
330
36AE
100
AcDbXrecord
280
     1
102
RTVSPost2010Prop28
280
     0
102
RTVSPost2010PropOp28
 70
     1
102
RTVSPost2010Prop29
280
     1
102
RTVSPost2010PropOp29
 70
     1
102
RTVSPost2010Prop30
280
     1
102
RTVSPost2010PropOp30
 70
     1
102
RTVSPost2010Prop31
280
     0
102
RTVSPost2010PropOp31
 70
     1
102
RTVSPost2010Prop32
280
     0
102
RTVSPost2010PropOp32
 70
     1
102
RTVSPost2010Prop33
280
     0
102
RTVSPost2010PropOp33
 70
     1
102
RTVSPost2010Prop34
280
     0
102
RTVSPost2010PropOp34
 70
     1
102
RTVSPost2010Prop35
280
     0
102
RTVSPost2010PropOp35
 70
     1
102
RTVSPost2010Prop36
280
     0
102
RTVSPost2010PropOp36
 70
     1
102
RTVSPost2010Prop37
 90
       50
102
RTVSPost2010PropOp37
 70
     1
102
RTVSPost2010Prop38
140
0.0
102
RTVSPost2010PropOp38
 70
     1
102
RTVSPost2010Prop39
140
1.0
102
RTVSPost2010PropOp39
 70
     1
102
RTVSPost2010Prop40
 90
        0
102
RTVSPost2010PropOp40
 70
     1
102
RTVSPost2010Prop41ColorIndex
 90
       18
102
RTVSPost2010Prop41ColorRGB
 90
        0
102
RTVSPost2010PropOp41
 70
     1
102
RTVSPost2010Prop42
 90
       50
102
RTVSPost2010PropOp42
 70
     1
102
RTVSPost2010Prop43
 90
        3
102
RTVSPost2010PropOp43
 70
     1
102
RTVSPost2010Prop44ColorIndex
 90
        5
102
RTVSPost2010Prop44ColorRGB
 90
      255
102
RTVSPost2010PropOp44
 70
     1
102
RTVSPost2010Prop45
280
     0
102
RTVSPost2010PropOp45
 70
     1
102
RTVSPost2010Prop46
 90
       50
102
RTVSPost2010PropOp46
 70
     1
102
RTVSPost2010Prop47
 90
       50
102
RTVSPost2010PropOp47
 70
     1
102
RTVSPost2010Prop48
 90
       50
102
RTVSPost2010PropOp48
 70
     1
102
RTVSPost2010Prop49
280
     0
102
RTVSPost2010PropOp49
 70
     1
102
RTVSPost2010Prop50
 90
       50
102
RTVSPost2010PropOp50
 70
     1
102
RTVSPost2010Prop51ColorIndex
 90
      256
102
RTVSPost2010Prop51ColorRGB
 90
-16777216
102
RTVSPost2010PropOp51
 70
     0
102
RTVSPost2010Prop52
140
1.0
102
RTVSPost2010PropOp52
 70
     0
102
RTVSPost2010Prop53
 90
        2
102
RTVSPost2010PropOp53
 70
     1
102
RTVSPost2010Prop54
  1
strokes_ogs.tif
102
RTVSPost2010PropOp54
 70
     1
102
RTVSPost2010Prop55
280
     0
102
RTVSPost2010PropOp55
 70
     1
102
RTVSPost2010Prop56
140
1.0
102
RTVSPost2010PropOp56
 70
     1
102
RTVSPost2010Prop57
140
1.0
102
RTVSPost2010PropOp57
 70
     1
102
RTVSPropertyOp0
 70
     1
102
RTVSPropertyOp1
 70
     1
102
RTVSPropertyOp2
 70
     1
102
RTVSPropertyOp3
 70
     1
102
RTVSPropertyOp4
 70
     1
102
RTVSPropertyOp5
 70
     1
102
RTVSPropertyOp6
 70
     1
102
RTVSPropertyOp7
 70
     1
102
RTVSPropertyOp8
 70
     1
102
RTVSPropertyOp9
 70
     1
102
RTVSPropertyOp10
 70
     1
102
RTVSPropertyOp11
 70
     1
102
RTVSPropertyOp12
 70
     1
102
RTVSPropertyOp13
 70
     1
102
RTVSPropertyOp14
 70
     1
102
RTVSPropertyOp15
 70
     1
102
RTVSPropertyOp16
 70
     1
102
RTVSPropertyOp17
 70
     1
102
RTVSPropertyOp18
 70
     1
102
RTVSPropertyOp19
 70
     1
102
RTVSPropertyOp20
 70
     1
102
RTVSPropertyOp21
 70
     1
102
RTVSPropertyOp22
 70
     1
102
RTVSPropertyOp23
 70
     1
102
RTVSPropertyOp24
 70
     1
102
RTVSPropertyOp25
 70
     1
102
RTVSPropertyOp26
 70
     1
102
RTVSPropertyOp27
 70
     1
102
RTVSPropertyOp28
 70
     1
102
RTVSPropertyOp29
 70
     1
102
RTVSPropertyOp30
 70
     1
102
RTVSPropertyOp31
 70
     1
102
RTVSPropertyOp32
 70
     1
102
RTVSPropertyOp33
 70
     1
102
RTVSPropertyOp34
 70
     1
102
RTVSPropertyOp35
 70
     1
102
RTVSPropertyOp36
 70
     1
102
RTVSPropertyOp37
 70
     1
102
RTVSPropertyOp38
 70
     1
102
RTVSPropertyOp39
 70
     1
102
RTVSPropertyOp40
 70
     1
102
RTVSPropertyOp41
 70
     1
102
RTVSPropertyOp42
 70
     1
102
RTVSPropertyOp43
 70
     1
102
RTVSPropertyOp44
 70
     1
102
RTVSPropertyOp45
 70
     1
102
RTVSPropertyOp46
 70
     1
102
RTVSPropertyOp47
 70
     1
102
RTVSPropertyOp48
 70
     1
102
RTVSPropertyOp49
 70
     1
102
RTVSPropertyOp50
 70
     1
102
RTVSPropertyOp51
 70
     0
102
RTVSPropertyOp52
 70
     0
102
RTVSPropertyOp53
 70
     1
102
RTVSPropertyOp54
 70
     1
102
RTVSPropertyOp55
 70
     1
102
RTVSPropertyOp56
 70
     1
102
RTVSPropertyOp57
 70
     1
102
RTVSPropertyOp58
 70
     1
102
RTVSPropertyOp59
 70
     1
102
RTVSPropertyOp60
 70
     1
102
RTVSPropertyOp61
 70
     1
102
RTVSPropertyOp62
 70
     1
  0
XRECORD
  5
36A5
102
{ACAD_REACTORS
330
36A4
102
}
330
36A4
100
AcDbXrecord
280
     1
102
RTVSPost2010Prop28
280
     0
102
RTVSPost2010PropOp28
 70
     1
102
RTVSPost2010Prop29
280
     1
102
RTVSPost2010PropOp29
 70
     1
102
RTVSPost2010Prop30
280
     1
102
RTVSPost2010PropOp30
 70
     1
102
RTVSPost2010Prop31
280
     0
102
RTVSPost2010PropOp31
 70
     1
102
RTVSPost2010Prop32
280
     0
102
RTVSPost2010PropOp32
 70
     1
102
RTVSPost2010Prop33
280
     0
102
RTVSPost2010PropOp33
 70
     1
102
RTVSPost2010Prop34
280
     0
102
RTVSPost2010PropOp34
 70
     1
102
RTVSPost2010Prop35
280
     0
102
RTVSPost2010PropOp35
 70
     1
102
RTVSPost2010Prop36
280
     0
102
RTVSPost2010PropOp36
 70
     1
102
RTVSPost2010Prop37
 90
       50
102
RTVSPost2010PropOp37
 70
     1
102
RTVSPost2010Prop38
140
0.0
102
RTVSPost2010PropOp38
 70
     1
102
RTVSPost2010Prop39
140
1.0
102
RTVSPost2010PropOp39
 70
     1
102
RTVSPost2010Prop40
 90
        0
102
RTVSPost2010PropOp40
 70
     1
102
RTVSPost2010Prop41ColorIndex
 90
       18
102
RTVSPost2010Prop41ColorRGB
 90
        0
102
RTVSPost2010PropOp41
 70
     1
102
RTVSPost2010Prop42
 90
       50
102
RTVSPost2010PropOp42
 70
     1
102
RTVSPost2010Prop43
 90
        3
102
RTVSPost2010PropOp43
 70
     1
102
RTVSPost2010Prop44ColorIndex
 90
        5
102
RTVSPost2010Prop44ColorRGB
 90
      255
102
RTVSPost2010PropOp44
 70
     1
102
RTVSPost2010Prop45
280
     0
102
RTVSPost2010PropOp45
 70
     1
102
RTVSPost2010Prop46
 90
       50
102
RTVSPost2010PropOp46
 70
     1
102
RTVSPost2010Prop47
 90
       50
102
RTVSPost2010PropOp47
 70
     1
102
RTVSPost2010Prop48
 90
       50
102
RTVSPost2010PropOp48
 70
     1
102
RTVSPost2010Prop49
280
     0
102
RTVSPost2010PropOp49
 70
     1
102
RTVSPost2010Prop50
 90
       50
102
RTVSPost2010PropOp50
 70
     1
102
RTVSPost2010Prop51ColorIndex
 90
      256
102
RTVSPost2010Prop51ColorRGB
 90
-16777216
102
RTVSPost2010PropOp51
 70
     0
102
RTVSPost2010Prop52
140
1.0
102
RTVSPost2010PropOp52
 70
     0
102
RTVSPost2010Prop53
 90
        2
102
RTVSPost2010PropOp53
 70
     1
102
RTVSPost2010Prop54
  1
strokes_ogs.tif
102
RTVSPost2010PropOp54
 70
     1
102
RTVSPost2010Prop55
280
     0
102
RTVSPost2010PropOp55
 70
     1
102
RTVSPost2010Prop56
140
1.0
102
RTVSPost2010PropOp56
 70
     1
102
RTVSPost2010Prop57
140
1.0
102
RTVSPost2010PropOp57
 70
     1
102
RTVSPropertyOp0
 70
     1
102
RTVSPropertyOp1
 70
     1
102
RTVSPropertyOp2
 70
     1
102
RTVSPropertyOp3
 70
     1
102
RTVSPropertyOp4
 70
     1
102
RTVSPropertyOp5
 70
     1
102
RTVSPropertyOp6
 70
     1
102
RTVSPropertyOp7
 70
     1
102
RTVSPropertyOp8
 70
     1
102
RTVSPropertyOp9
 70
     1
102
RTVSPropertyOp10
 70
     1
102
RTVSPropertyOp11
 70
     1
102
RTVSPropertyOp12
 70
     1
102
RTVSPropertyOp13
 70
     1
102
RTVSPropertyOp14
 70
     1
102
RTVSPropertyOp15
 70
     1
102
RTVSPropertyOp16
 70
     1
102
RTVSPropertyOp17
 70
     1
102
RTVSPropertyOp18
 70
     1
102
RTVSPropertyOp19
 70
     1
102
RTVSPropertyOp20
 70
     1
102
RTVSPropertyOp21
 70
     1
102
RTVSPropertyOp22
 70
     1
102
RTVSPropertyOp23
 70
     1
102
RTVSPropertyOp24
 70
     1
102
RTVSPropertyOp25
 70
     1
102
RTVSPropertyOp26
 70
     1
102
RTVSPropertyOp27
 70
     1
102
RTVSPropertyOp28
 70
     1
102
RTVSPropertyOp29
 70
     1
102
RTVSPropertyOp30
 70
     1
102
RTVSPropertyOp31
 70
     1
102
RTVSPropertyOp32
 70
     1
102
RTVSPropertyOp33
 70
     1
102
RTVSPropertyOp34
 70
     1
102
RTVSPropertyOp35
 70
     1
102
RTVSPropertyOp36
 70
     1
102
RTVSPropertyOp37
 70
     1
102
RTVSPropertyOp38
 70
     1
102
RTVSPropertyOp39
 70
     1
102
RTVSPropertyOp40
 70
     1
102
RTVSPropertyOp41
 70
     1
102
RTVSPropertyOp42
 70
     1
102
RTVSPropertyOp43
 70
     1
102
RTVSPropertyOp44
 70
     1
102
RTVSPropertyOp45
 70
     1
102
RTVSPropertyOp46
 70
     1
102
RTVSPropertyOp47
 70
     1
102
RTVSPropertyOp48
 70
     1
102
RTVSPropertyOp49
 70
     1
102
RTVSPropertyOp50
 70
     1
102
RTVSPropertyOp51
 70
     0
102
RTVSPropertyOp52
 70
     0
102
RTVSPropertyOp53
 70
     1
102
RTVSPropertyOp54
 70
     1
102
RTVSPropertyOp55
 70
     1
102
RTVSPropertyOp56
 70
     1
102
RTVSPropertyOp57
 70
     1
102
RTVSPropertyOp58
 70
     1
102
RTVSPropertyOp59
 70
     1
102
RTVSPropertyOp60
 70
     1
102
RTVSPropertyOp61
 70
     1
102
RTVSPropertyOp62
 70
     1
  0
XRECORD
  5
3699
102
{ACAD_REACTORS
330
3698
102
}
330
3698
100
AcDbXrecord
280
     1
102
RTVSPost2010Prop28
280
     0
102
RTVSPost2010PropOp28
 70
     1
102
RTVSPost2010Prop29
280
     1
102
RTVSPost2010PropOp29
 70
     1
102
RTVSPost2010Prop30
280
     1
102
RTVSPost2010PropOp30
 70
     1
102
RTVSPost2010Prop31
280
     0
102
RTVSPost2010PropOp31
 70
     1
102
RTVSPost2010Prop32
280
     0
102
RTVSPost2010PropOp32
 70
     1
102
RTVSPost2010Prop33
280
     0
102
RTVSPost2010PropOp33
 70
     1
102
RTVSPost2010Prop34
280
     0
102
RTVSPost2010PropOp34
 70
     1
102
RTVSPost2010Prop35
280
     0
102
RTVSPost2010PropOp35
 70
     1
102
RTVSPost2010Prop36
280
     0
102
RTVSPost2010PropOp36
 70
     1
102
RTVSPost2010Prop37
 90
       50
102
RTVSPost2010PropOp37
 70
     1
102
RTVSPost2010Prop38
140
0.0
102
RTVSPost2010PropOp38
 70
     1
102
RTVSPost2010Prop39
140
1.0
102
RTVSPost2010PropOp39
 70
     1
102
RTVSPost2010Prop40
 90
        0
102
RTVSPost2010PropOp40
 70
     1
102
RTVSPost2010Prop41ColorIndex
 90
       18
102
RTVSPost2010Prop41ColorRGB
 90
        0
102
RTVSPost2010PropOp41
 70
     1
102
RTVSPost2010Prop42
 90
       50
102
RTVSPost2010PropOp42
 70
     1
102
RTVSPost2010Prop43
 90
        3
102
RTVSPost2010PropOp43
 70
     1
102
RTVSPost2010Prop44ColorIndex
 90
        5
102
RTVSPost2010Prop44ColorRGB
 90
      255
102
RTVSPost2010PropOp44
 70
     1
102
RTVSPost2010Prop45
280
     0
102
RTVSPost2010PropOp45
 70
     1
102
RTVSPost2010Prop46
 90
       50
102
RTVSPost2010PropOp46
 70
     1
102
RTVSPost2010Prop47
 90
       50
102
RTVSPost2010PropOp47
 70
     1
102
RTVSPost2010Prop48
 90
       50
102
RTVSPost2010PropOp48
 70
     1
102
RTVSPost2010Prop49
280
     0
102
RTVSPost2010PropOp49
 70
     1
102
RTVSPost2010Prop50
 90
       50
102
RTVSPost2010PropOp50
 70
     1
102
RTVSPost2010Prop51ColorIndex
 90
      256
102
RTVSPost2010Prop51ColorRGB
 90
-16777216
102
RTVSPost2010PropOp51
 70
     0
102
RTVSPost2010Prop52
140
1.0
102
RTVSPost2010PropOp52
 70
     0
102
RTVSPost2010Prop53
 90
        2
102
RTVSPost2010PropOp53
 70
     1
102
RTVSPost2010Prop54
  1
strokes_ogs.tif
102
RTVSPost2010PropOp54
 70
     1
102
RTVSPost2010Prop55
280
     0
102
RTVSPost2010PropOp55
 70
     1
102
RTVSPost2010Prop56
140
1.0
102
RTVSPost2010PropOp56
 70
     1
102
RTVSPost2010Prop57
140
1.0
102
RTVSPost2010PropOp57
 70
     1
102
RTVSPropertyOp0
 70
     1
102
RTVSPropertyOp1
 70
     1
102
RTVSPropertyOp2
 70
     1
102
RTVSPropertyOp3
 70
     1
102
RTVSPropertyOp4
 70
     1
102
RTVSPropertyOp5
 70
     1
102
RTVSPropertyOp6
 70
     1
102
RTVSPropertyOp7
 70
     1
102
RTVSPropertyOp8
 70
     1
102
RTVSPropertyOp9
 70
     1
102
RTVSPropertyOp10
 70
     1
102
RTVSPropertyOp11
 70
     1
102
RTVSPropertyOp12
 70
     1
102
RTVSPropertyOp13
 70
     1
102
RTVSPropertyOp14
 70
     1
102
RTVSPropertyOp15
 70
     1
102
RTVSPropertyOp16
 70
     1
102
RTVSPropertyOp17
 70
     1
102
RTVSPropertyOp18
 70
     1
102
RTVSPropertyOp19
 70
     1
102
RTVSPropertyOp20
 70
     1
102
RTVSPropertyOp21
 70
     1
102
RTVSPropertyOp22
 70
     1
102
RTVSPropertyOp23
 70
     1
102
RTVSPropertyOp24
 70
     1
102
RTVSPropertyOp25
 70
     1
102
RTVSPropertyOp26
 70
     1
102
RTVSPropertyOp27
 70
     1
102
RTVSPropertyOp28
 70
     1
102
RTVSPropertyOp29
 70
     1
102
RTVSPropertyOp30
 70
     1
102
RTVSPropertyOp31
 70
     1
102
RTVSPropertyOp32
 70
     1
102
RTVSPropertyOp33
 70
     1
102
RTVSPropertyOp34
 70
     1
102
RTVSPropertyOp35
 70
     1
102
RTVSPropertyOp36
 70
     1
102
RTVSPropertyOp37
 70
     1
102
RTVSPropertyOp38
 70
     1
102
RTVSPropertyOp39
 70
     1
102
RTVSPropertyOp40
 70
     1
102
RTVSPropertyOp41
 70
     1
102
RTVSPropertyOp42
 70
     1
102
RTVSPropertyOp43
 70
     1
102
RTVSPropertyOp44
 70
     1
102
RTVSPropertyOp45
 70
     1
102
RTVSPropertyOp46
 70
     1
102
RTVSPropertyOp47
 70
     1
102
RTVSPropertyOp48
 70
     1
102
RTVSPropertyOp49
 70
     1
102
RTVSPropertyOp50
 70
     1
102
RTVSPropertyOp51
 70
     0
102
RTVSPropertyOp52
 70
     0
102
RTVSPropertyOp53
 70
     1
102
RTVSPropertyOp54
 70
     1
102
RTVSPropertyOp55
 70
     1
102
RTVSPropertyOp56
 70
     1
102
RTVSPropertyOp57
 70
     1
102
RTVSPropertyOp58
 70
     1
102
RTVSPropertyOp59
 70
     1
102
RTVSPropertyOp60
 70
     1
102
RTVSPropertyOp61
 70
     1
102
RTVSPropertyOp62
 70
     1
  0
XRECORD
  5
36B1
102
{ACAD_REACTORS
330
36B0
102
}
330
36B0
100
AcDbXrecord
280
     1
102
RTVSPost2010Prop28
280
     0
102
RTVSPost2010PropOp28
 70
     1
102
RTVSPost2010Prop29
280
     1
102
RTVSPost2010PropOp29
 70
     1
102
RTVSPost2010Prop30
280
     1
102
RTVSPost2010PropOp30
 70
     1
102
RTVSPost2010Prop31
280
     0
102
RTVSPost2010PropOp31
 70
     1
102
RTVSPost2010Prop32
280
     0
102
RTVSPost2010PropOp32
 70
     1
102
RTVSPost2010Prop33
280
     0
102
RTVSPost2010PropOp33
 70
     1
102
RTVSPost2010Prop34
280
     0
102
RTVSPost2010PropOp34
 70
     1
102
RTVSPost2010Prop35
280
     0
102
RTVSPost2010PropOp35
 70
     1
102
RTVSPost2010Prop36
280
     0
102
RTVSPost2010PropOp36
 70
     1
102
RTVSPost2010Prop37
 90
       50
102
RTVSPost2010PropOp37
 70
     1
102
RTVSPost2010Prop38
140
0.0
102
RTVSPost2010PropOp38
 70
     1
102
RTVSPost2010Prop39
140
1.0
102
RTVSPost2010PropOp39
 70
     1
102
RTVSPost2010Prop40
 90
        0
102
RTVSPost2010PropOp40
 70
     1
102
RTVSPost2010Prop41ColorIndex
 90
       18
102
RTVSPost2010Prop41ColorRGB
 90
        0
102
RTVSPost2010PropOp41
 70
     1
102
RTVSPost2010Prop42
 90
       50
102
RTVSPost2010PropOp42
 70
     1
102
RTVSPost2010Prop43
 90
        3
102
RTVSPost2010PropOp43
 70
     1
102
RTVSPost2010Prop44ColorIndex
 90
        5
102
RTVSPost2010Prop44ColorRGB
 90
      255
102
RTVSPost2010PropOp44
 70
     1
102
RTVSPost2010Prop45
280
     0
102
RTVSPost2010PropOp45
 70
     1
102
RTVSPost2010Prop46
 90
       50
102
RTVSPost2010PropOp46
 70
     1
102
RTVSPost2010Prop47
 90
       50
102
RTVSPost2010PropOp47
 70
     1
102
RTVSPost2010Prop48
 90
       50
102
RTVSPost2010PropOp48
 70
     1
102
RTVSPost2010Prop49
280
     0
102
RTVSPost2010PropOp49
 70
     1
102
RTVSPost2010Prop50
 90
       50
102
RTVSPost2010PropOp50
 70
     1
102
RTVSPost2010Prop51ColorIndex
 90
      256
102
RTVSPost2010Prop51ColorRGB
 90
-16777216
102
RTVSPost2010PropOp51
 70
     0
102
RTVSPost2010Prop52
140
1.0
102
RTVSPost2010PropOp52
 70
     0
102
RTVSPost2010Prop53
 90
        2
102
RTVSPost2010PropOp53
 70
     1
102
RTVSPost2010Prop54
  1
strokes_ogs.tif
102
RTVSPost2010PropOp54
 70
     1
102
RTVSPost2010Prop55
280
     0
102
RTVSPost2010PropOp55
 70
     1
102
RTVSPost2010Prop56
140
1.0
102
RTVSPost2010PropOp56
 70
     1
102
RTVSPost2010Prop57
140
1.0
102
RTVSPost2010PropOp57
 70
     1
102
RTVSPropertyOp0
 70
     1
102
RTVSPropertyOp1
 70
     1
102
RTVSPropertyOp2
 70
     1
102
RTVSPropertyOp3
 70
     1
102
RTVSPropertyOp4
 70
     1
102
RTVSPropertyOp5
 70
     1
102
RTVSPropertyOp6
 70
     1
102
RTVSPropertyOp7
 70
     1
102
RTVSPropertyOp8
 70
     1
102
RTVSPropertyOp9
 70
     1
102
RTVSPropertyOp10
 70
     1
102
RTVSPropertyOp11
 70
     1
102
RTVSPropertyOp12
 70
     1
102
RTVSPropertyOp13
 70
     1
102
RTVSPropertyOp14
 70
     1
102
RTVSPropertyOp15
 70
     1
102
RTVSPropertyOp16
 70
     1
102
RTVSPropertyOp17
 70
     1
102
RTVSPropertyOp18
 70
     1
102
RTVSPropertyOp19
 70
     1
102
RTVSPropertyOp20
 70
     1
102
RTVSPropertyOp21
 70
     1
102
RTVSPropertyOp22
 70
     1
102
RTVSPropertyOp23
 70
     1
102
RTVSPropertyOp24
 70
     1
102
RTVSPropertyOp25
 70
     1
102
RTVSPropertyOp26
 70
     1
102
RTVSPropertyOp27
 70
     1
102
RTVSPropertyOp28
 70
     1
102
RTVSPropertyOp29
 70
     1
102
RTVSPropertyOp30
 70
     1
102
RTVSPropertyOp31
 70
     1
102
RTVSPropertyOp32
 70
     1
102
RTVSPropertyOp33
 70
     1
102
RTVSPropertyOp34
 70
     1
102
RTVSPropertyOp35
 70
     1
102
RTVSPropertyOp36
 70
     1
102
RTVSPropertyOp37
 70
     1
102
RTVSPropertyOp38
 70
     1
102
RTVSPropertyOp39
 70
     1
102
RTVSPropertyOp40
 70
     1
102
RTVSPropertyOp41
 70
     1
102
RTVSPropertyOp42
 70
     1
102
RTVSPropertyOp43
 70
     1
102
RTVSPropertyOp44
 70
     1
102
RTVSPropertyOp45
 70
     1
102
RTVSPropertyOp46
 70
     1
102
RTVSPropertyOp47
 70
     1
102
RTVSPropertyOp48
 70
     1
102
RTVSPropertyOp49
 70
     1
102
RTVSPropertyOp50
 70
     1
102
RTVSPropertyOp51
 70
     0
102
RTVSPropertyOp52
 70
     0
102
RTVSPropertyOp53
 70
     1
102
RTVSPropertyOp54
 70
     1
102
RTVSPropertyOp55
 70
     1
102
RTVSPropertyOp56
 70
     1
102
RTVSPropertyOp57
 70
     1
102
RTVSPropertyOp58
 70
     1
102
RTVSPropertyOp59
 70
     1
102
RTVSPropertyOp60
 70
     1
102
RTVSPropertyOp61
 70
     1
102
RTVSPropertyOp62
 70
     1
  0
ENDSEC
  0
EOF
